Центурионы / The centurions (Тед Педерсен) [1986, США, Япония, фантастика, DVDRip-AVC] [Серия "Небеса в огне"] (АО : Трамвай-фильм)

Ответить на тему
Статистика раздачи
Размер:  154 MB   |    Зарегистрирован:  4 месяца 26 дней   |    Скачан:  0 раз

Полного источника не было: 1 день 20 часов

 
   
 
 
 
Автор Сообщение

Трамвай-фильм ®

Пол: Мужской

Стаж: 4 года 4 месяца

Сообщений: 1350

Откуда: Россия

Создавать темы 22-Июл-2018 22:26

[Цитировать]

Центурионы / The centurions / Серия "Небеса в огне"
Страна: США, Япония
Жанр: фантастика
Год выпуска: 1986
Продолжительность: 00:22:05
Перевод: Авторский (одноголосый, синхронный) Трамвай-фильм
Режиссер: Тед Педерсен
Описание: В недалеком будущем док. Террор и его кибер-компаньон Хакер решили захватить Землю используя армия дронов. Противостоит им команда отважных бойцов облаченных в экзоскелеты, которые сливаются с системой вооружения и становятся людьми-машинами.
Доп. информация: Одна серия, для общего ознакомления. Перевод синхронный, делал сразу без подготовки.
Сэмпл: Cкачать
Качество видео: DVDRip-AVC
Видео: MPEG4 Video (H264), 640x480, 29.97fps, 750 kb/s
Аудио 1: AAC, 44100Hz, stereo, 128 kb/s (ru)
Аудио 2: AAC, 44100Hz, stereo, 103 kb/s (eng)

MediaInfo

Video
ID : 1
Format : AVC
Format/Info : Advanced Video Codec
Format profile : High@L3.1
Format settings, CABAC : Yes
Format settings, ReFrames : 4 frames
Codec ID : V_MPEG4/ISO/AVC
Duration : 22 min 5 s
Bit rate : 750 kb/s
Width : 640 pixels
Height : 480 pixels
Display aspect ratio : 4:3
Frame rate mode : Constant
Frame rate : 29.970 (30000/1001) FPS
Color space : YUV
Chroma subsampling : 4:2:0
Bit depth : 8 bits
Scan type : Progressive
Bits/(Pixel*Frame) : 0.081
Stream size : 117 MiB (76%)
Writing library : x264 core 146 r11M 121396c
Encoding settings : cabac=1 / ref=3 / deblock=1:0:0 / analyse=0x3:0x113 / me=hex / subme=7 / psy=1 / psy_rd=1.00:0.00 / mixed_ref=1 / me_range=16 / chroma_me=1 / trellis=1 / 8x8dct=1 / cqm=0 / deadzone=21,11 / fast_pskip=1 / chroma_qp_offset=-2 / threads=84 / lookahead_threads=3 / sliced_threads=0 / nr=0 / decimate=1 / interlaced=0 / bluray_compat=0 / stitchable=1 / constrained_intra=0 / bframes=3 / b_pyramid=2 / b_adapt=1 / b_bias=0 / direct=1 / weightb=1 / open_gop=0 / weightp=2 / keyint=infinite / keyint_min=29 / scenecut=40 / intra_refresh=0 / rc_lookahead=40 / rc=2pass / mbtree=1 / bitrate=750 / ratetol=1.0 / qcomp=0.60 / qpmin=5 / qpmax=69 / qpstep=4 / cplxblur=20.0 / qblur=0.5 / vbv_maxrate=825 / vbv_bufsize=900 / nal_hrd=none / filler=0 / ip_ratio=1.40 / aq=1:1.00
Default : Yes
Forced : No
Audio #1
ID : 2
Format : AAC
Format/Info : Advanced Audio Codec
Format profile : LC
Codec ID : A_AAC
Duration : 22 min 5 s
Bit rate : 128 kb/s
Channel(s) : 2 channels
Channel positions : Front: L R
Sampling rate : 44.1 kHz
Frame rate : 43.066 FPS (1024 spf)
Compression mode : Lossy
Stream size : 20.2 MiB (13%)
Language : Russian
Default : Yes
Forced : No
Audio #2
ID : 3
Format : AAC
Format/Info : Advanced Audio Codec
Format profile : LC
Codec ID : A_AAC
Duration : 22 min 5 s
Bit rate : 103 kb/s
Channel(s) : 2 channels
Channel positions : Front: L R
Sampling rate : 48.0 kHz
Frame rate : 46.875 FPS (1024 spf)
Compression mode : Lossy
Stream size : 16.3 MiB (11%)
Language : English
Default : No
Forced : No

Скриншоты




Скринлист

Файл дополнительно залит на ОБЛАКО
Centurions-1.torrent
Торрент: Зарегистрирован [ 2018-07-22 22:26 ]

Скачать .torrent

Скачать

12 KB

Статус: проверено
Скачан: 0 раз
Размер: 154 MB
 
[Профиль] [ЛС]
Быстрый ответ

Имя:

            
Для отправки сообщений необходимо включить JavaScript
Показать сообщения:    
Ответить на тему

Текущее время: 18-Дек 17:12

Часовой пояс: UTC + 3:30



Вы можете начинать темы
Вы можете отвечать на сообщения
Вы можете редактировать свои сообщения
Вы не можете удалять свои сообщения
Вы не можете голосовать в опросах
Вы можете прикреплять файлы к сообщениям
Вы можете скачивать файлы