Место назначения - Луна / Destination Moon (Ирвинг Пичел / Irving Pichel) [1950 г., фантастика, DVDRip] ПМ

Reply to topic
 
Author Message

Guest ®

Gender: Unknown

Post 11-Oct-2012 20:49

[Quote]

Место назначения - Луна / Destination Moon
Год выпуска: 1950
Страна: США
Жанр: фантастика
Продолжительность: 01:31:03
Перевод: Профессиональный (многоголосый закадровый)
Режиссер: Ирвинг Пичел / Irving Pichel
Описание: После многолетних научных стараний, группа ученых из США решает, что пришла пора осваивать просторы космоса, и отправляет корабль на Луну. Освободившись от Земной атмосферы, астронавты сталкиваются с угрозой полного отказа оборудования и всеми радостями отсутствия гравитации. Однако главное открытие ожидает их впереди. По прибытии на Луну, команда с ужасом понимает, что у них не осталось топлива на дорогу домой…
Доп. информация: первый цветной худ фильм про космос
Качество: DVDRip
Формат: AVI
Видео: XviD, 2009 кбит/с, 688x512, 25 к/с,
Аудио: Русский (AC3, 2 ch, 192 Кбит/с)


ТРЕЙЛЕР

Релиз

Для Украины: рип дополнительно залит в файлохранилище
Для удаления и добавления дорожек в mkv используйте бесплатную mkvmerge GUI 5.80

Дополнительно

слоган «TWO YEARS IN THE MAKING!»
Also Known As (AKA)
Endstation Mond Austria / West Germany
A Conquista da Lua Portugal (imdb display title)
A Hold börtönében Hungary (imdb display title)
Ap' ti Gi sti Selini Greece (transliterated ISO-LATIN-1 title)
Aya seyahat Turkey (imdb display title) (Turkish title)
Con destino a la luna Spain
Départ pour la lune Belgium (French title)
Destination månen Sweden
Destination... Lune! France
Destino, la luna Mexico (imdb display title)
Kierunek ksiezyc Poland
Måneskibet Denmark
Månraketen Sweden
Matka kuuhun Finland
Op reis naar de maan Belgium (Flemish title)
Rakete zum Mond Germany (DVD title)
S.O.S. Selini kalei Diastima Greece (reissue title)
Uomini sulla luna Italy
Награды
Оскар, 1951 год
Золотой глобус, 1951 год
Берлинский кинофестиваль, 1951 год

MediaInfo

General
Complete name : F:\Место назначения - Луна (1950).avi.!ut
Format : AVI
Format/Info : Audio Video Interleave
File size : 1.46 GiB
Duration : 1h 31mn
Overall bit rate : 2 300 Kbps
Writing application : VirtualDubMod 1.5.10.3 | www.virtualdub-fr.org || (build 2550/release)
Writing library : VirtualDubMod build 2550/release
Video
ID : 0
Format : MPEG-4 Visual
Format profile : Advanced Simple@L5
Format settings, BVOP : 1
Format settings, QPel : No
Format settings, GMC : No warppoints
Format settings, Matrix : Default (MPEG)
Codec ID : XVID
Codec ID/Hint : XviD
Duration : 1h 31mn
Bit rate : 2 009 Kbps
Width : 688 pixels
Height : 512 pixels
Display aspect ratio : 4:3
Frame rate : 25.000 fps
Color space : YUV
Chroma subsampling : 4:2:0
Bit depth : 8 bits
Scan type : Progressive
Compression mode : Lossy
Bits/(Pixel*Frame) : 0.228
Stream size : 1.28 GiB (87%)
Writing library : XviD 1.2.1 (UTC 2008-12-04)
Audio
ID : 1
Format : AC-3
Format/Info : Audio Coding 3
Mode extension : CM (complete main)
Codec ID : 2000
Duration : 1h 31mn
Bit rate mode : Constant
Bit rate : 192 Kbps
Channel(s) : 2 channels
Channel positions : Front: L R
Sampling rate : 48.0 KHz
Bit depth : 16 bits
Compression mode : Lossy
Stream size : 125 MiB (8%)
Alignment : Split accross interleaves

Скриншоты


 
Quick Reply

Name:

            
Heads necessary to send messages to enable JavaScript
Display posts:    
Reply to topic

Current time is: 18-Sep 08:05

All times are UTC + 3



You cannot post new topics in this forum
You can reply to topics in this forum
You cannot edit your posts in this forum
You cannot delete your posts in this forum
You cannot vote in polls in this forum
You cannot attach files in this forum
You cannot download files in this forum