Ти Джей Хукер / T.J. Hooker (Клифф Боул) [1982, США, полицейское шоу, DVDRip] [пилотная серия] (АО : Трамвай фильм)

Ответить на тему
Статистика раздачи
Размер:  490 MB   |    Зарегистрирован:  4 месяца 27 дней   |    Скачан:  1 раз

Полного источника не было: 7 часов

 
   
 
 
 
Автор Сообщение

Трамвай-фильм ®

Пол: Мужской

Стаж: 4 года 3 месяца

Сообщений: 1335

Откуда: Россия

Создавать темы 16-Июн-2018 18:06

[Цитировать]

Ти Джей Хукер / T.J. Hooker / пилотная серия
Страна: США
Жанр: полицейское шоу
Год выпуска: 1982
Продолжительность: 01:14:09
Перевод: Авторский (одноголосый) Трамвай фильм
Режиссер: Клифф Боул
В ролях: Уильям Шатнер, Ричард Лоусон, Адриан Змед, Браин Патрик Кларк, Джон Глэдстейн, Келли Хармон, Джо МакДоннел
Описание: Опытный полицейский, ветеран "Зеленых беретов", Томас Джефферсон Хукер берет под опеку курсантов полицейской академии, что бы сделать из них отличных стражей
Доп. информация: Пилотный фильм, положивший начало легендарному 5 сезонному теле-шоу Ти Джей Хукер.
Качество видео: DVDRip
Видео: Xvid, 720x480, ~793 kb/s
Аудио: MP3, 2 ch, 128 kb/s

MediaInfo

Video
ID : 1
Format : MPEG-4 Visual
Format profile : Simple@L3
Format settings, BVOP : No
Format settings, QPel : No
Format settings, GMC : No warppoints
Format settings, Matrix : Default (H.263)
Codec ID : V_MS/VFW/FOURCC / XVID
Codec ID/Hint : XviD
Duration : 1 h 14 min
Bit rate : 793 kb/s
Width : 720 pixels
Height : 480 pixels
Display aspect ratio : 3:2
Frame rate mode : Constant
Frame rate : 29.970 (29970/1000) FPS
Original frame rate : 29.000 FPS
Standard : NTSC
Color space : YUV
Chroma subsampling : 4:2:0
Bit depth : 8 bits
Scan type : Progressive
Compression mode : Lossy
Bits/(Pixel*Frame) : 0.077
Stream size : 421 MiB (86%)
Writing library : XviD 1.2.1 (UTC 2008-12-04)
Default : Yes
Forced : No
Audio
ID : 2
Format : MPEG Audio
Format version : Version 1
Format profile : Layer 3
Mode : Joint stereo
Mode extension : MS Stereo
Codec ID : A_MPEG/L3
Codec ID/Hint : MP3
Duration : 1 h 14 min
Bit rate mode : Constant
Bit rate : 128 kb/s
Channel(s) : 2 channels
Sampling rate : 44.1 kHz
Frame rate : 38.281 FPS (1152 spf)
Compression mode : Lossy
Stream size : 67.9 MiB (14%)
Writing library : LAME3.98.2
Language : Russian
Default : Yes
Forced : No

Скриншоты




T.J.Hooker.torrent
Торрент: Зарегистрирован [ 2018-06-16 18:06 ]

Скачать .torrent

Скачать

19 KB

Статус: проверено
Скачан: 1 раз
Размер: 490 MB
 
[Профиль] [ЛС]
Показать сообщения:    
Ответить на тему

Текущее время: 14-Ноя 06:59

Часовой пояс: UTC + 3:30



Вы не можете начинать темы
Вы не можете отвечать на сообщения
Вы не можете редактировать свои сообщения
Вы не можете удалять свои сообщения
Вы не можете голосовать в опросах
Вы не можете прикреплять файлы к сообщениям
Вы можете скачивать файлы