Дизель / Diesel (Роберт Крамер / Robert Kramer) [1985, Франция, Фантастика, триллер, боевик, VHSRip](ЛО : Erogg) (СТ : tROXXY) (СТ) (Sub Rus)

Reply to topic
DL-List and Torrent activity
Size:  815 MB   |    Registered:  2 years 4 months   |    Completed:  2 times

Seeders:

Username ULR UL DL UL speed DL speed
Holmes 0 0- 0- 0- 0-
shows data only for the current session
 
   
 
 
 
Author Message

pompilius ®

Gender: Male

Longevity: 2 years 11 months

Posts: 369

Post 12-May-2018 11:29

[Quote]

Дизель / Diesel
Страна: Франция
Жанр: Фантастика, триллер, боевик
Год выпуска: 1985
Продолжительность: 01:28:17
Перевод: Любительский одноголосый закадровый, Erogg, Mono
Перевод 2: Субтитры _ tROXXY
Перевод 3: Субтитры Английский
Cубтитры: русские
Режиссер: Роберт Крамер / Robert Kramer
В ролях: Жерар Клейн, Тикки Ольгадо, Аньес Сораль, Ришар Боринже, Нильс Ареструп, Магали Ноэль, Ксавье Делюк, Ролан Бланш, Лоран Терзиефф, Суад Амиду
Описание: Вальтер Спиритеон, обозлённый на проститутку Анну, из-за показаний которой его брат оказался в тюрьме желает поймать её, отпущенную на свободу судом подземного города, созданного Финчем, и сделать её пленницей до выхода брата из тюрьмы, но та сбегает с помощью таинственной группировки "Либерти", после чего Вальтеру ничего не остаётся, кроме как нанять некоего Нельсона, чтобы тот доставил её обратно в город живой...
Сэмпл: http://multi-up.com/1199714
Качество видео: VHSRip
Формат видео: MKV
Видео: XviD, 528x384, 25.000 fps, 969 kbps
Аудио: AC-3, 48.0 kHz, 192 kb/s, Mono
Аудио: MP3, 48.0 KHz, 128 kbps, Stereo
Формат субтитров: softsub (SRT)

MediaInfo

General
Unique ID : 204160902967342474526020761754615495842 (0x9997F5AB9BE197F387610217C27D3CA2)
Complete name : L:\ФАНТАСТИКА\1985 - Дизель Diesel\Diesel.1985.VHSrip.mkv
Format : Matroska
Format version : Version 4 / Version 2
File size : 815 MiB
Duration : 1 h 28 min
Overall bit rate : 1 291 kb/s
Encoded date : UTC 2018-05-27 18:34:30
Writing application : mkvmerge v8.1.0 ('Psychedelic Postcard') 64bit
Writing library : libebml v1.3.1 + libmatroska v1.4.2
Video
ID : 1
Format : MPEG-4 Visual
Format profile : Advanced Simple@L5
Format settings : BVOP1
Format settings, BVOP : 1
Format settings, QPel : No
Format settings, GMC : No warppoints
Format settings, Matrix : Default (MPEG)
Muxing mode : Packed bitstream
Codec ID : V_MS/VFW/FOURCC / XVID
Codec ID/Hint : XviD
Duration : 1 h 28 min
Bit rate : 969 kb/s
Width : 528 pixels
Height : 384 pixels
Display aspect ratio : 1.375
Frame rate mode : Constant
Frame rate : 25.000 FPS
Color space : YUV
Chroma subsampling : 4:2:0
Bit depth : 8 bits
Scan type : Progressive
Compression mode : Lossy
Bits/(Pixel*Frame) : 0.191
Stream size : 612 MiB (75%)
Writing library : XviD 1.2.1 (UTC 2008-12-04)
Default : Yes
Forced : No
Audio #1
ID : 2
Format : AC-3
Format/Info : Audio Coding 3
Codec ID : A_AC3
Duration : 1 h 28 min
Bit rate mode : Constant
Bit rate : 192 kb/s
Channel(s) : 1 channel
Channel positions : Front: C
Sampling rate : 48.0 kHz
Frame rate : 31.250 FPS (1536 SPF)
Bit depth : 16 bits
Compression mode : Lossy
Stream size : 121 MiB (15%)
Title : Любительский одноголосый закадровый, Erogg, Mono
Language : Russian
Service kind : Complete Main
Default : No
Forced : No
Audio #2
ID : 3
Format : MPEG Audio
Format version : Version 1
Format profile : Layer 3
Format settings : Joint stereo / MS Stereo
Codec ID : A_MPEG/L3
Codec ID/Hint : MP3
Duration : 1 h 28 min
Bit rate mode : Constant
Bit rate : 128 kb/s
Channel(s) : 2 channels
Sampling rate : 48.0 kHz
Frame rate : 41.667 FPS (1152 SPF)
Compression mode : Lossy
Stream size : 80.8 MiB (10%)
Title : Original, Stereo
Writing library : LAME3.97
Encoding settings : -m j -V 4 -q 2 -lowpass 17 -b 128
Language : French
Default : No
Forced : No
Text #1
ID : 4
Format : UTF-8
Codec ID : S_TEXT/UTF8
Codec ID/Info : UTF-8 Plain Text
Duration : 1 h 17 min
Bit rate : 56 b/s
Count of elements : 578
Stream size : 31.7 KiB (0%)
Title : Фильм
Language : Russian
Default : No
Forced : No
Text #2
ID : 5
Format : UTF-8
Codec ID : S_TEXT/UTF8
Codec ID/Info : UTF-8 Plain Text
Duration : 1 h 17 min
Bit rate : 31 b/s
Count of elements : 581
Stream size : 17.9 KiB (0%)
Language : English
Default : No
Forced : No

Скриншоты



Рип дополнительно залит на mail.ru
Торрент обновлён 28.05.2018 г., добавлена русская озвучка.
Diesel.1985.VHSrip.mkv.torrent
Torrent: Registered [ 2018-05-27 21:37 ]

Download .torrent

Download

16 KB

Status: checked
Completed: 2 times
Size: 815 MB
 


Last edited by pompilius on 2018-05-27 23:09; edited 10 times in total
[Profile] [PM]

Susanin

Gender: Male

Longevity: 6 years 5 months

Posts: 848

Post 12-May-2018 15:14 (after 3 hours)

[Quote]

чёт у меня стоит вообще
[Profile] [PM]

Susanin

Gender: Male

Longevity: 6 years 5 months

Posts: 848

Post 12-May-2018 19:47 (after 4 hours)

[Quote]

вообще не идёт au
[Profile] [PM]

Трамвай-фильм

Gender: Male

Longevity: 6 years 1 month

Posts: 1863

Location: Россия

Post 12-May-2018 19:49 (after 1 minute)

[Quote]

Такое бывает. Причем при раздаче на с нескольких трекеров - с других качают на ура.
[Profile] [PM]

CROM@G

Gender: Male

Longevity: 5 years

Posts: 3384

Location: Прибалтика

Post 12-May-2018 19:51 (after 2 minutes)

[Quote]

На облако или файлообменник залейте и дело с концем
[Profile] [PM]

Susanin

Gender: Male

Longevity: 6 years 5 months

Posts: 848

Post 27-May-2018 12:48 (after 14 days)

[Quote]

pompilius, вы озвучку будете добавлять в раздачу?
[Profile] [PM]

pompilius ®

Gender: Male

Longevity: 2 years 11 months

Posts: 369

Post 27-May-2018 20:05 (after 7 hours)

[Quote]

20619pompilius, вы озвучку будете добавлять в раздачу?
Вот ведь, запамятовал совсем, да.
[Profile] [PM]

pompilius ®

Gender: Male

Longevity: 2 years 11 months

Posts: 369

Post 27-May-2018 21:32 (after 1 hour 26 minutes)

[Quote]

Залил с русской озвучкой!
[Profile] [PM]

AlexNT60

Gender: Male

Longevity: 7 years 7 months

Posts: 137

Location: СПб

Post 29-May-2018 15:29 (after 1 day 17 hours)

[Quote]

За озвучку благодарности клубу Westerns.ru!
[Profile] [PM]
Display posts:    
Reply to topic

Current time is: 29-Sep 15:58

All times are UTC + 3



You cannot post new topics in this forum
You cannot reply to topics in this forum
You cannot edit your posts in this forum
You cannot delete your posts in this forum
You cannot vote in polls in this forum
You cannot attach files in this forum
You can download files in this forum