Бионическая разборка: Человек за шесть миллионов долларов и Бионическая женщина / Bionic Showdown / Bionic Showdown: The Six Million Dollar Man and the Bionic Woman (Алан Дж. Леви / Alan J. Levi) [1989, США, Фантастика, боевик, VHSRip] (ПД)

Reply to topic
DL-List and Torrent activity
Size:  861 MB   |    Registered:  2 years 5 months   |    Completed:  0 times

Seeder not seen: 1 year 5 months

 
   
 
 
 
Author Message

Guest

Gender: Unknown

Longevity: 50 years

Post 11-Apr-2018 19:48

[Quote]

Бионическая разборка: Человек за шесть миллионов долларов и Бионическая женщина / Bionic Showdown / Bionic Showdown: The Six Million Dollar Man and the Bionic Woman
Страна: США, Michael Sloan Productions, Universal TV
Жанр: Фантастика, боевик
Год выпуска: 1989
Продолжительность: 01:32:01
Перевод: Профессиональный (двухголосый)
Режиссер: Алан Дж. Леви / Alan J. Levi
В ролях:
Lindsay Wagner ...Jaime SommersLee Majors
Lee Majors ...Steve Austin
Richard Anderson ...Oscar Goldman
Sandra Bullock ...Kate Mason
Jeff Yagher ...Jim Goldman
Martin E. Brooks ...Dr. Rudy Wells
Lee Majors II ...Jim Castillian
Josef Sommer ...Charles Estiman
Geraint Wyn Davies ...Allan Devlin
Lawrence Dane ...General Dzerinsky
Robert Lansing ...General McAllister
Carolyn Dunn ...Sally
Jack Blum ...Larry
Andy Dan ...Comrade Kellagyn (as Andrew R. Dan)
David Christopher Adamson ...Randall (as David Adamson)
Описание: Человек за шесть миллионов долларов и Бионическая женщина воссоединяются с более молодыми бионическими ассистентами и пытаются поймать бионического шпиона.
Качество видео: VHSRip
Формат: MKV
Видео: DivX 3, 899 кбит/с, 480x352, 25 к/с
Аудио 1: Русский ПМ (AC3, 2 ch, 192 Кбит/с)
Аудио 2: Английский (AC3, 2 ch, 192 Кбит/с)
Работа над релизом:
Видеоряд найден на синемагеддоне
За звуковую дорожку спасибо SuperDVD01 , а также JUSTKANT за активное участие
В англ. дорожке дефект на 01:09:10 - 01:09:30 - фрагмент взят с русской дорожки
Работа с дорожками - kosmoaelita



Пример русского перевода

Дополнительно

Also Known As (AKA)
Australia (rerun title) Bionic Showdown
Brazil O Desafio Final
France L'espion bionique
Venezuela El hombre nuclear y la mujer biónica
Формат изображения: 1.33 : 1
Формат копии: 35 mm
Формат съёмок: 35 mm
Изображение: цветное
Язык: английский

MediaInfo

Общее
Уникальный идентификатор : 228757969298784580100923648943381825573 (0xAC192EABCD0B53E3BB43D16D25004825)
Полное имя : N:\BD-DISC\Bionic Showdown 1989.DivX.VHSRip.Rus.kosmoaelita.mkv
Формат : Matroska
Версия формата : Version 4 / Version 2
Размер файла : 861 Мбайт
Продолжительность : 1 ч. 32 м.
Общий поток : 1309 Кбит/сек
Название фильма : Bionic Showdown: The Six Million Dollar Man and The Bionic Woman / 1989 / kosmoaelita
Дата кодирования : UTC 2018-04-11 16:12:44
Программа кодирования : mkvmerge v6.6.0 ('The Edge Of The In Between') built on Dec 1 2013 17:55:00
Библиотека кодирования : libebml v1.3.0 + libmatroska v1.4.1
Attachments : POSTER.JPG
Видео
Идентификатор : 1
Формат : MPEG-4 Visual
Идентификатор кодека : V_MS/VFW/FOURCC / DIV3
Идентификатор кодека/Подсказка : DivX 3 Low
Продолжительность : 1 ч. 32 м.
Битрейт : 899 Кбит/сек
Ширина : 480 пикселей
Высота : 352 пикселя
Соотношение сторон : 4:3
Режим частоты кадров : Постоянный
Частота кадров : 25,000 кадров/сек
Цветовое пространство : YUV
Субдискретизация насыщенности : 4:2:0
Битовая глубина : 8 бит
Метод сжатия : С потерями
Бит/(Пиксели*Кадры) : 0.213
Размер потока : 591 Мбайт (69%)
Заголовок : kosmoaelita
Default : Да
Forced : Нет
Аудио #1
Идентификатор : 2
Формат : AC-3
Формат/Информация : Audio Coding 3
Расширение режима : CM (complete main)
Параметр Endianness формата : Big
Идентификатор кодека : A_AC3
Продолжительность : 1 ч. 32 м.
Вид битрейта : Постоянный
Битрейт : 192 Кбит/сек
Каналы : 2 канала
Расположение каналов : Front: L R
Частота : 48,0 КГц
Частота кадров : 31,250 кадров/сек (1536 spf)
Метод сжатия : С потерями
Размер потока : 126 Мбайт (15%)
Заголовок : Русский ПД
Язык : Russian
Default : Да
Forced : Нет
Аудио #2
Идентификатор : 3
Формат : AC-3
Формат/Информация : Audio Coding 3
Расширение режима : CM (complete main)
Параметр Endianness формата : Big
Идентификатор кодека : A_AC3
Продолжительность : 1 ч. 32 м.
Вид битрейта : Постоянный
Битрейт : 192 Кбит/сек
Каналы : 2 канала
Расположение каналов : Front: L R
Частота : 48,0 КГц
Частота кадров : 31,250 кадров/сек (1536 spf)
Метод сжатия : С потерями
Размер потока : 126 Мбайт (15%)
Язык : English
Default : Нет
Forced : Нет

Скриншоты















Скринлист

Файл дополнительно залит на ОБЛАКО
Bionic Showdown 1989.DivX.VHSRip.Rus.kosmoaelita.mkv.torrent
Torrent: Registered [ 2018-04-11 19:48 ]

Download .torrent

Download

17 KB

Status: * not checked
Completed: 0 times
Size: 861 MB
 


Last edited by on 2018-04-12 08:03; edited 3 times in total
[Profile] [PM]

Guest

Gender: Unknown

Longevity: 50 years

Post 11-Apr-2018 19:50 (after 1 minute)

[Quote]

Что-то из этой оперы...
http://kosmoaelita.com/viewtopic.php?t=45
[Profile] [PM]
Display posts:    
Reply to topic

Current time is: 29-Sep 18:00

All times are UTC + 3



You cannot post new topics in this forum
You cannot reply to topics in this forum
You cannot edit your posts in this forum
You cannot delete your posts in this forum
You cannot vote in polls in this forum
You cannot attach files in this forum
You can download files in this forum