Зерам 2 / Зейрам 2 / Дзэйрам 2 / Zeiram 2 / Zeiram II / Zeiramu 2 (Кеита Амемия / Keita Amemiya) [1994, Япония, Фантастика, боевик, WEBRip-720p] ЛО (IDimo), АО (Ghostface), СТ (barsook (toxist)

Ответить на тему
 
Автор Сообщение

punk2 ®

Пол: Мужской

Стаж: 5 лет 10 месяцев

Сообщений: 238

Создавать темы 23-Мар-2018 03:04

[Цитировать]

Зерам 2 / Зейрам 2 / Дзэйрам 2 / Zeiram 2 / Zeiram II / Zeiramu 2
Страна: Япония, Bandai Visual Co. Ltd.
Жанр: Фантастика, боевик
Год выпуска: 1994
Продолжительность: 01:39:45
Перевод 1: ЛО IDimo по субтитрам от (barsook (toxist)
Перевод 2: АО Ghostface
Режиссер: Кеита Амемия / Keita Amemiya
В ролях:
Ёко Морияма / Yûko Moriyama, Кацухико Иной / Kazuhiko Inoue, Ёкиджиро Хотару/ Yukijirô Hotaru, Мизухо Ёшида / Mizuho Yoshida, Митсухо Ейб / Mitsuo Abe
Описание: Продолжение культового фантастического боевика Зерам (1991). Мы снова встретим наших героев в схватке с инопланетным монстром Зерамом, который выходит из под контроля, искусственного интеллекта Боба, приславшего Зерама на помощь Ирии. Зерам хочет найти "античное транспортационное устройство" для свободной телепортации, с помощь которого он хочет выбраться из некой "зоны", альтернативной реальности созданной Бобом, для ограничения передвижения Зерама. На этот раз у чудовища в арсенале много новых примочек, и героям придется противостоять снова инопланетному монстру.
Качество: WEBRip-720p
Формат: MKV
Видео: x264, 5898 кбит/с, 1280x682, 23.976 к/с
Аудио 1: Русский ЛО (AC3, 2 ch, 192 Кбит/с)
Аудио 2: Русский АО (AC3, 2 ch, 192 Кбит/с)
Аудио 3: Японский (AC3, 2 ch, 224 Кбит/с)
Аудио 4: Английский (AC3, 2 ch, 224 Кбит/с)
Субтитры : Русские (barsook (toxist), английские
Работа над релизом:
Видеоряд найден на синемагеддоне.
Русская озвучка по заказу croMAG - iDimo.
За перевод от Ghostface спасибо Neon, abigail80, bvedargh, ricks, AlexNever, Симоннс, Faulenzer, innominate, budulay, ivan ser, Jasenka



Пример русской озвучки от IDimo

Знаете ли вы, что...

Отзывы

Рецензия

Возвращение героев!
После не столь грандиозного, но веже душевного фильма и отличного анимэ об инопланетной охотнице за головами Ирии, выходит очередной художественный фильм, в котором бравая, невероятно милая, нереально и все же реально красивая девушка в спец костюме спасает бренную землю от жуткого порождения вселенной, наделенного нечеловеческой и по истине могущественной силой Зейрама!
В общем, о продолжении можно сказать, что оно в чем то лучше, в чем то хуже первого фильма. Радует что фильм не выглядит тошнотворным как первый, поединков больше, они лучше поставлены, осталась хорошая комедийная составляющая в лице все тех же электриков, много Ирии, чье появление не может не радовать глаз. Сюжет довольно примитивен, не сильно отличается от первой части, даже кончина монстра получилась по тем же причинам, но не сочтите это за спойлер, кто знаком с первой частью, или с анимэ, прекрасно знает что у нашего товарища всего одно уязвимое место, да и то на самом видном участке тела! Разве, что сея концовка получилась более напряженной, и даже заставила сопереживать героям!
Если говорить о минусах, то сюда приплести огрехи сюжета, а именно, толком непонятно каким раком Зейрам вновь на земле объявился (хотя быт может все потому, что я смотрел фильм без перевода на русский, а лишь с английскими субтитрами, но все же не припомню чтоб хоть как то объяснялось сошествие Зейрама на землю). Есть глупые моменты, и не смотря на отсутствие тошнотворности в следствие того, что чудище на сей раз не посчитало должным трансформироваться в какую либо неведомую бяку, тем не менее собаку было жалко. Кроме всего прочего я узнал, что Ирия настолько крута, что может стрелять из супер космического автомата, не чувствуя при этом отдачи! Да, актриса не смогла сымпровизировать отдачу автомата во время стрельбы, и создатели ограничились лишь пороховыми эффектами, но это все было лишь в одном моменте, но тем не менее смотрелось забавно!) Иной раз раздражали друзья электрики, а именно тем, что когда монстр месил их космическую подругу, они просто стояли в стороне, и никто не пытался за нее заступиться!
Подводя итог, можно сказать, что данный фильм неплохой, мне он понравился больше первой киношки, но меньше чем анимационная версия. Дружеская атмосфера осталась на месте, хотя и были моменты несовместимые с этим. Визуальные эффекты неплохие, актерская игра на уровне, Юко Морияма мисс мира или мне в жены, фильму
8 из 10

MediaInfo

Общее
Уникальный идентификатор : 206338029839259596652955759630907799140 (0x9B3B4250021FA7D9B70E2E2E251AF664)
Полное имя : N:\BD-DISC\Zeiram 2 1994.720p.x264.WEBRip.720p.2xRus.kosmoaelita.mkv
Формат : Matroska
Версия формата : Version 4 / Version 2
Размер файла : 4,69 Гбайт
Продолжительность : 1 ч. 39 м.
Общий поток : 6729 Кбит/сек
Название фильма : Zeiram 2 / 1994 / www.kosmoaelita.com
Дата кодирования : UTC 2018-03-22 18:47:22 / UTC 2018-03-21T15:02:34Z
Программа кодирования : mkvmerge v6.6.0 ('The Edge Of The In Between') built on Dec 1 2013 17:55:00
Библиотека кодирования : libebml v1.3.0 + libmatroska v1.4.1 / Lavf57.7.2
Attachments : poster.jpg
Видео
Идентификатор : 1
Формат : AVC
Формат/Информация : Advanced Video Codec
Профиль формата : High@L4.1
Параметр CABAC формата : Да
Параметр ReFrames формата : 5 кадров
Идентификатор кодека : V_MPEG4/ISO/AVC
Продолжительность : 1 ч. 39 м.
Битрейт : 5898 Кбит/сек
Ширина : 1280 пикселей
Высота : 682 пикселя
Соотношение сторон : 1,85:1
Режим частоты кадров : Постоянный
Частота кадров : 23,976 (24000/1001) кадра/сек
Цветовое пространство : YUV
Субдискретизация насыщенности : 4:2:0
Битовая глубина : 8 бит
Тип развёртки : Прогрессивная
Бит/(Пиксели*Кадры) : 0.282
Размер потока : 4,02 Гбайт (86%)
Заголовок : kosmoaelita
Библиотека кодирования : x264 core 148 r2708 86b7198
Настройки программы : cabac=1 / ref=5 / deblock=1:0:0 / analyse=0x3:0x133 / me=umh / subme=10 / psy=1 / psy_rd=1.00:0.00 / mixed_ref=1 / me_range=24 / chroma_me=1 / trellis=2 / 8x8dct=1 / cqm=0 / deadzone=21,11 / fast_pskip=1 / chroma_qp_offset=-2 / threads=12 / lookahead_threads=1 / sliced_threads=0 / nr=0 / decimate=1 / interlaced=0 / bluray_compat=0 / constrained_intra=0 / bframes=5 / b_pyramid=2 / b_adapt=2 / b_bias=0 / direct=3 / weightb=1 / open_gop=0 / weightp=2 / keyint=240 / keyint_min=24 / scenecut=40 / intra_refresh=0 / rc_lookahead=60 / rc=2pass / mbtree=1 / bitrate=5898 / ratetol=1.0 / qcomp=0.60 / qpmin=0 / qpmax=69 / qpstep=4 / cplxblur=20.0 / qblur=0.5 / vbv_maxrate=62500 / vbv_bufsize=78125 / nal_hrd=none / filler=0 / ip_ratio=1.40 / aq=1:1.00
Default : Да
Forced : Нет
Цветовой диапазон : Limited
Основные цвета : BT.709
Характеристики трансфера : BT.709
Коэффициенты матрицы : BT.709
Аудио #1
Идентификатор : 2
Формат : AC-3
Формат/Информация : Audio Coding 3
Расширение режима : CM (complete main)
Параметр Endianness формата : Big
Идентификатор кодека : A_AC3
Продолжительность : 1 ч. 39 м.
Вид битрейта : Постоянный
Битрейт : 192 Кбит/сек
Каналы : 2 канала
Расположение каналов : Front: L R
Частота : 48,0 КГц
Частота кадров : 31,250 кадров/сек (1536 spf)
Метод сжатия : С потерями
Размер потока : 137 Мбайт (3%)
Заголовок : Русский ЛО (iDimo) - по субтитрам от barsook (toxist) - поддержка croMAG
Язык : Russian
Default : Да
Forced : Нет
Аудио #2
Идентификатор : 3
Формат : AC-3
Формат/Информация : Audio Coding 3
Расширение режима : CM (complete main)
Параметр Endianness формата : Big
Идентификатор кодека : A_AC3
Продолжительность : 1 ч. 39 м.
Вид битрейта : Постоянный
Битрейт : 192 Кбит/сек
Каналы : 2 канала
Расположение каналов : Front: L R
Частота : 48,0 КГц
Частота кадров : 31,250 кадров/сек (1536 spf)
Метод сжатия : С потерями
Размер потока : 137 Мбайт (3%)
Заголовок : Русский АО (Ghostface)
Язык : Russian
Default : Нет
Forced : Нет
Аудио #3
Идентификатор : 4
Формат : AC-3
Формат/Информация : Audio Coding 3
Расширение режима : CM (complete main)
Параметр Endianness формата : Big
Идентификатор кодека : A_AC3
Продолжительность : 1 ч. 39 м.
Вид битрейта : Постоянный
Битрейт : 224 Кбит/сек
Каналы : 2 канала
Расположение каналов : Front: L R
Частота : 48,0 КГц
Частота кадров : 31,250 кадров/сек (1536 spf)
Метод сжатия : С потерями
Размер потока : 160 Мбайт (3%)
Язык : Japanese
Default : Нет
Forced : Нет
Аудио #4
Идентификатор : 5
Формат : AC-3
Формат/Информация : Audio Coding 3
Расширение режима : CM (complete main)
Параметр Endianness формата : Big
Идентификатор кодека : A_AC3
Продолжительность : 1 ч. 39 м.
Вид битрейта : Постоянный
Битрейт : 224 Кбит/сек
Каналы : 2 канала
Расположение каналов : Front: L R
Частота : 48,0 КГц
Частота кадров : 31,250 кадров/сек (1536 spf)
Метод сжатия : С потерями
Размер потока : 160 Мбайт (3%)
Язык : English
Default : Нет
Forced : Нет
Текст #1
Идентификатор : 6
Формат : UTF-8
Идентификатор кодека : S_TEXT/UTF8
Идентификатор кодека/Информация : UTF-8 Plain Text
Заголовок : Русский (barsook (toxist) - srt - перевод с англ. субтитров
Язык : Russian
Default : Нет
Forced : Нет
Текст #2
Идентификатор : 7
Формат : VobSub
Режим смешивания : zlib
Идентификатор кодека : S_VOBSUB
Идентификатор кодека/Информация : Picture based subtitle format used on DVDs
Заголовок : Русский (barsook (toxist) - VobSub - перевод с англ. субтитров
Язык : Russian
Default : Нет
Forced : Нет
Текст #3
Идентификатор : 8
Формат : UTF-8
Идентификатор кодека : S_TEXT/UTF8
Идентификатор кодека/Информация : UTF-8 Plain Text
Заголовок : English Subs
Язык : English
Default : Нет
Forced : Нет
Меню
00:00:00.000 : :Chapter 1
00:03:35.215 : :Chapter 2
00:08:15.203 : :Chapter 3
00:16:24.609 : :Chapter 4
00:23:55.434 : :Chapter 5
00:34:51.631 : :Chapter 6
00:42:39.557 : :Chapter 7
00:47:40.649 : :Chapter 8
00:57:22.147 : :Chapter 9
01:03:36.896 : :Chapter 10
01:13:23.983 : :Chapter 11
01:15:46.709 : :Chapter 12
01:21:18.457 : :Chapter 13
01:29:01.253 : :Chapter 14
01:35:42.946 : :Chapter 15
01:39:31.632 : :Chapter 16

Скриншоты

















Скринлист

Файл дополнительно залит на ОБЛАКО
[Профиль] [ЛС]

punk2 ®

Пол: Мужской

Стаж: 5 лет 10 месяцев

Сообщений: 238

Создавать темы 23-Мар-2018 03:04 (спустя 44 секунды)

[Цитировать]

Замена на WEBRip-720p
DVDRip vs. WEBRip-720p

[Профиль] [ЛС]
Показать сообщения:    
Ответить на тему

Текущее время: 21-Авг 20:48

Часовой пояс: UTC + 3:30



Вы не можете начинать темы
Вы не можете отвечать на сообщения
Вы не можете редактировать свои сообщения
Вы не можете удалять свои сообщения
Вы не можете голосовать в опросах
Вы не можете прикреплять файлы к сообщениям
Вы не можете скачивать файлы