Город-остров / Island City / Future City (Хорхе Монтеси / Jorge Montesi) [1994, США, Фантастика, боевик, постапокалипсис, VHSRip] ПД (), АО (В.Дохалов)

Ответить на тему
 
Автор Сообщение

punk2 ®

Пол: Мужской

Стаж: 5 лет 10 месяцев

Сообщений: 238

Создавать темы 23-Мар-2018 03:02

[Цитировать]

Город-остров / Island City / Future City
Страна: США, Lee Rich Productions, Lorimar Television
Жанр: Фантастика, боевик, постапокалипсис
Год выпуска: 1994
Продолжительность: 01:27:23
Перевод 1: Профессиональный (двухголосый)
Перевод 2: Авторский (одноголосый) В.Дохалов
Режиссер: Хорхе Монтеси / Jorge Montesi
В ролях:
Kevin Conroy ... Col. Tom Valdoon
Brenda Strong ... Dr. Sammy Helding
Eric McCormack ... Greg 23
Peter Koch ... Lt. Michael Mindy
Constance Marie ... Connie Sealle
Veanne Cox ... Helen
Rick Porter ... Andy Sealle
Joe Marchman ... Ty Sealle
Jerry Haynes ... Ben
Angie Bolling ... Sally Redman
Cynthia Dorn Cynthia Dorn ... Gen. Meyday
Alex Morris Alex Morris ... Dr. Kelly (as Alex Allen Morris)
Paul Pender Paul Pender ... Morrissey
Caroline Summers Caroline Summers ... Bikini Girl
Shea Fowler Shea Fowler ... Little Girl
Описание: Пилот несостоявшегося сериала.
В не столь отдаленном будущем генетики изобрели препарат, который продлевает жизнь. К сожалению, у многих происходит мутация. Они становятся сильнее, но человеческие качества, такие как добро и сострадание, утрачивают. К счастью, не все меняются. Оставшиеся людьми собираются в последнем бастионе человечества, получившем название Город-остров.

Качество видео: VHSRip
Формат: MKV
Видео: x264, 1457 кбит/с, 704x528, 25 к/с
Аудио 1: Русский ПД () (AC3, 2 ch, 192 Кбит/с)
Аудио 2: Русский АО (Дохалов) (AC3, 2 ch, 192 Кбит/с)
Аудио 3: Английский (AC3, 2 ch, 192 Кбит/с)
Работа над релизом:
Видеоряд найден в сети.
SuperDVD01 - собственная запись двухголосого русского перевода с какого-то украинского телеканала через рекордер.
Fikaloid - собственная оцифровка Дохалова с видеокассеты.
JUSTKANT - синхронизация переводов.



Пример русского ПД перевода

Дополнительно

Also Known As (AKA)
Germany Future City - Stadt der Überlebenden
Finland Saarrettu kaupunki
France (video title) Les survivants du futur
Greece (video title) Apostoli sto mellon
Hungary Embernek maradni
Italy (video title) 2035 mutazione immortale
Формат изображения: 1.33 : 1
Изображение: цветное
Язык: английский

Отзывы

Урааа!!! Слава раздающему и лучи любви! Помню этот фильм ещё на видеокассете, пересматривала до тех пор, пока лента не зажевалась вусмерть! Мне так нравился красавец-полукровка с черным медальоном!
------------------------------------------
Тут как всегда, неплохая идея столкнулась с низкими телерейтингами и высокой (на тот момент) стоимостью продакшна (производства) сериала. А жаль, при наличии адекватных и умелых сценаристов в сериале можно было много всего развернуть интересного. Заделы в пилоте, по крайней мере, очень интригуют

Рецензия

Обитаемый остров
В детстве такие фильмы смотрелись на видеокассетах на одном дыхании. Теперь же… Спецэффекты примитивны (даже в первой половине 90-х можно было бы сделать лучше, но сильно придираться не буду, т. к. подобные фильмы из разряда телевизионных фантастик не могли рассчитывать на самые высокие технологии), игра актёров — напускной пафос, а в сценарии — сплошные дыры и условности. Но ностальгию никто не отменял, и именно она добавляет большой плюс этому фильму «давно прошедших дней», а также его оригинальная (на тот момент) идея.
Генетики изобрели препарат, который продлевает жизнь. Части населения повезло, и препарат действительно сохраняет им молодость, другая же половина превращается в агрессивных мускулистых обезьяноподобных мутантов. Единственная защита людей — военные и учёные из Города-острова, которые отбивают атаки агрессивных племён и стараются найти лекарство от мутации.
Не понятно, почему часть населения спокойно живёт в безопасном, защищённом от мутантов и бурь городе, а кто-то влачит жалкое существование в лачугах за его пределами под постоянной угрозой нападения агрессоров. Ведь всё равно, когда военные спасают людей от мутантов, они забирают их в Город-остров. Это никак не объясняется и является одной из сценарных дыр, над которыми никто не задумывался раньше и которые теперь явно бросаются в глаза. Но идея с кристаллами, которые приобретают свой цвет в зависимости от генетического кода, очень даже интересна.
Большое внимание уделяется моральной составляющей: рисковать ли жизнью отряда ради одного потерявшегося, когда надежды почти нет; отбросить ли предрассудки по поводу полумутантов, когда близкий тебе человек пострадал по вине мутантов. Моральная дилемма встаёт и на пути двух ключевых персонажей, когда полковник Том Валдун и его коллега Сэмми Хелдинг питают друг к другу явную симпатию и физиологически могут быть вместе, но Сэмми не может предать мужа, несмотря на то, что тот в своё время не принял препарат молодости и, в отличие от жены, уже глубокий старик, что неизбежно создаёт между ними непреодолимую пропасть.
Не знаю как вам, а мне иногда хочется поностальгировать и пересмотреть старенькие фильмы, которые в детстве мы смотрели ещё на видеокассетах. И стОит ли в такие моменты сильно придираться к их недостаткам, если раньше они доставляли массу удовольствия от просмотра и будоражили наше воображение?! Да, теперь они примитивны и пафосны, а порой глупы и нелогичны, но всему, видимо, своё время, и, может, через какие-то 20-30 лет нынешние современные фильмы будут казаться такими же примитивными. И пиши я эту рецензию лет 20 назад, это была бы хвалебная ода с оценкой 10 из 10. Теперь же по старой памяти я даю
6 из 10

MediaInfo

Общее
Уникальный идентификатор : 237158357820683662816376086902114900287 (0xB26B09CD4C673BD1B7059619A8BC593F)
Полное имя : N:\BD-DISC\Island City 1994.XviD.VHSRip.2xRus.mkv
Формат : Matroska
Версия формата : Version 4 / Version 2
Размер файла : 1,27 Гбайт
Продолжительность : 1 ч. 27 м.
Общий поток : 2074 Кбит/сек
Название фильма : Город-остров / Island City / 1994 / kosmoaelita.com
Дата кодирования : UTC 2018-03-18 16:46:07
Программа кодирования : mkvmerge v6.6.0 ('The Edge Of The In Between') built on Dec 1 2013 17:55:00
Библиотека кодирования : libebml v1.3.0 + libmatroska v1.4.1
Attachments : poster.jpg
Видео
Идентификатор : 1
Формат : MPEG-4 Visual
Профиль формата : Advanced Simple@L5
Параметр BVOP формата : 1
Параметр QPel формата : Нет
Параметр GMC формата : Без точки перехода
Параметр матрицы формата : Default (MPEG)
Идентификатор кодека : V_MS/VFW/FOURCC / XVID
Идентификатор кодека/Подсказка : XviD
Продолжительность : 1 ч. 27 м.
Битрейт : 1457 Кбит/сек
Ширина : 704 пикселя
Высота : 528 пикселей
Соотношение сторон : 4:3
Режим частоты кадров : Постоянный
Частота кадров : 25,000 кадров/сек
Цветовое пространство : YUV
Субдискретизация насыщенности : 4:2:0
Битовая глубина : 8 бит
Тип развёртки : Прогрессивная
Метод сжатия : С потерями
Бит/(Пиксели*Кадры) : 0.157
Размер потока : 911 Мбайт (70%)
Заголовок : kosmoaelita
Библиотека кодирования : XviD 1.2.1 (UTC 2008-12-04)
Default : Да
Forced : Нет
Аудио #1
Идентификатор : 2
Формат : AC-3
Формат/Информация : Audio Coding 3
Расширение режима : CM (complete main)
Параметр Endianness формата : Big
Идентификатор кодека : A_AC3
Продолжительность : 1 ч. 27 м.
Вид битрейта : Постоянный
Битрейт : 192 Кбит/сек
Каналы : 2 канала
Расположение каналов : Front: L R
Частота : 48,0 КГц
Частота кадров : 31,250 кадров/сек (1536 spf)
Метод сжатия : С потерями
Размер потока : 120 Мбайт (9%)
Заголовок : Русский ПД
Язык : Russian
Default : Да
Forced : Нет
Аудио #2
Идентификатор : 3
Формат : AC-3
Формат/Информация : Audio Coding 3
Расширение режима : CM (complete main)
Параметр Endianness формата : Big
Идентификатор кодека : A_AC3
Продолжительность : 1 ч. 27 м.
Вид битрейта : Постоянный
Битрейт : 192 Кбит/сек
Каналы : 2 канала
Расположение каналов : Front: L R
Частота : 48,0 КГц
Частота кадров : 31,250 кадров/сек (1536 spf)
Метод сжатия : С потерями
Размер потока : 120 Мбайт (9%)
Заголовок : Русский АО (А.Дольский) - с VHS
Язык : Russian
Default : Нет
Forced : Нет
Аудио #3
Идентификатор : 4
Формат : AC-3
Формат/Информация : Audio Coding 3
Расширение режима : CM (complete main)
Параметр Endianness формата : Big
Идентификатор кодека : A_AC3
Продолжительность : 1 ч. 27 м.
Вид битрейта : Постоянный
Битрейт : 192 Кбит/сек
Каналы : 2 канала
Расположение каналов : Front: L R
Частота : 48,0 КГц
Частота кадров : 31,250 кадров/сек (1536 spf)
Метод сжатия : С потерями
Размер потока : 120 Мбайт (9%)
Язык : English
Default : Нет
Forced : Нет

Скриншоты














Скринлист

Файл дополнительно залит на ОБЛАКО
[Профиль] [ЛС]

Трамвай-фильм

Пол: Мужской

Стаж: 4 года

Сообщений: 1264

Откуда: Россия

Создавать темы 24-Мар-2018 13:24 (спустя 1 день 10 часов)

[Цитировать]

Оу, типичный ПА 90-х.
[Профиль] [ЛС]
Показать сообщения:    
Ответить на тему

Текущее время: 21-Авг 20:48

Часовой пояс: UTC + 3:30



Вы не можете начинать темы
Вы не можете отвечать на сообщения
Вы не можете редактировать свои сообщения
Вы не можете удалять свои сообщения
Вы не можете голосовать в опросах
Вы не можете прикреплять файлы к сообщениям
Вы не можете скачивать файлы