Гайтабо / Ложные подозрения / Falscher Verdacht / Haytabo (Улли Ломмель / Ulli Lommel) [1971 г., фантастика, DVDRip] ЛО (den904), СТ (Vargnatt)

Reply to topic
 
Author Message

admin ®

Gender: Male

Longevity: 7 years 2 months

Posts: 4721

Post 11-Oct-2012 01:52

[Quote]

Гайтабо / Ложные подозрения / Falscher Verdacht / Haytabo
Релиз - kosmoaelita.com
Год выпуска: 1971
Страна: Германия (ФРГ)
Жанр: фантастика
Продолжительность: 01:16:00
Перевод 1: ЛО (kosmoaelita,den904 )
Перевод 2: Субтитры Vargnatt
Режиссер: Улли Ломмель / Ulli Lommel
В ролях: Эдди Константин, Катрин Шааке, Райнер Вернер Фассбиндер, Ханнес Фухс, Райнер Лангханс, Ингрид Кавен, Барбара Константайн, Таня Константайн, Улли Ломмель, Уши Обермайер
Описание: Биохимик натыкается на хорошо сохранившиеся научные рукописи прошлого века. Он и его подруга изучают этот документ и открывают для себя формулу бессмертия. Один важный компонент, однако,отсутствует.Иностранец предлагает решение проблемы. И вот биохимик и его подруга отправляются в прошлое, чтобы встретиться с человеком, который на самом деле написал рукопись. Со второй попытки им удается встретиться с изобретателем ...
Релиз

Качество: DVDRip
Формат: MKV
Видео: x264, 1941 кбит/с, 720x552 crf=20
Аудио 1: Русский ЛО (den904) (AC3, 2 ch, 192 Кбит/с)
Аудио 2: Немецкий (AC3, 2 ch, 192 Кбит/с)
Субтитры : Русские (Vargnatt), английские
Работа над релизом:
Релиз - kosmoaelita. com
Рип с ДВД5 С CG - sasha20072007
Русские субтитры - Vargnatt
Русская озвучка по заказу kosmoaelita.com - den904
Сведение озвучки - sasha20072007



Русская озвучка

Релиз

Релиз - kosmoaelita. com
Рип с ДВД5 С CG - sasha20072007
Русские субтитры - Vargnatt
Русская озвучка по заказу kosmoaelita.com - den904
Сведение озвучки - sasha20072007
Для Украины: рип и оригинальный ДВД дополнительно залиты в файлохранилище
Для удаления и добавления дорожек в mkv используйте бесплатную mkvmerge GUI 5.80

Дополнительно

Also Known As (AKA)
Eddie geht weiter West Germany
Falscher Verdacht West Germany

MediaInfo

Общее
Уникальный идентификатор : 210223587396731389004870157017809134553 (0x9E2797173DD33809AFA92D64CB03A3D9)
Полное имя : F:\Гайтабо Haytabo 1971.x264.DVDRip.Rus.kosmoaelita.mkv
Формат : Matroska
Версия формата : Version 4 / Version 2
Размер файла : 1,26 Гбайт
Продолжительность : 1 ч. 16 м.
Общий поток : 2369 Кбит/сек
Название фильма : Гайтабо / Haytabo / 1971 / rip by sasha20072007 (2012-09-02) (kosmoaelita)
Дата кодирования : UTC 2013-09-29 15:56:48
Программа кодирования : mkvmerge v6.4.1 ('Omega Point') built on Sep 16 2013 22:05:10
Библиотека кодирования : libebml v1.3.0 + libmatroska v1.4.1
Attachment : Yes / Yes
Видео
Идентификатор : 1
Формат : AVC
Формат/Информация : Advanced Video Codec
Профиль формата : High@L4.1
Параметр CABAC формата : Да
Параметр ReFrames формата : 8 кадров
Идентификатор кодека : V_MPEG4/ISO/AVC
Продолжительность : 1 ч. 16 м.
Битрейт : 1938 Кбит/сек
Ширина : 720 пикселей
Высота : 552 пикселя
Соотношение сторон : 4:3
Режим частоты кадров : Постоянный
Частота кадров : 25,000 кадров/сек
Цветовое пространство : YUV
Субдискретизация насыщенности : 4:2:0
Битовая глубина : 8 бит
Тип развёртки : Прогрессивная
Бит/(Пиксели*Кадры) : 0.195
Размер потока : 1,03 Гбайт (82%)
Заголовок : Релиз www.kosmoaelita.com
Библиотека кодирования : x264 core 125 r2208 d9d2288
Настройки программы : cabac=1 / ref=8 / deblock=1:-1:0 / analyse=0x3:0x133 / me=umh / subme=11 / psy=1 / psy_rd=1.00:0.15 / mixed_ref=1 / me_range=24 / chroma_me=1 / trellis=2 / 8x8dct=1 / cqm=0 / deadzone=21,11 / fast_pskip=1 / chroma_qp_offset=-3 / threads=4 / lookahead_threads=1 / sliced_threads=0 / nr=0 / decimate=1 / interlaced=0 / bluray_compat=0 / constrained_intra=0 / bframes=8 / b_pyramid=2 / b_adapt=2 / b_bias=0 / direct=1 / weightb=1 / open_gop=0 / weightp=2 / keyint=220 / keyint_min=22 / scenecut=40 / intra_refresh=0 / rc_lookahead=60 / rc=crf / mbtree=1 / crf=20.0 / qcomp=0.60 / qpmin=0 / qpmax=69 / qpstep=4 / vbv_maxrate=17500 / vbv_bufsize=14000 / crf_max=0.0 / nal_hrd=none / ip_ratio=1.27 / aq=1:0.80
Default : Да
Forced : Нет
Аудио #1
Идентификатор : 2
Формат : AC-3
Формат/Информация : Audio Coding 3
Расширение режима : CM (complete main)
Параметр Endianness формата : Big
Идентификатор кодека : A_AC3
Продолжительность : 1 ч. 16 м.
Вид битрейта : Постоянный
Битрейт : 192 Кбит/сек
Каналы : 2 канала
Расположение каналов : Front: L R
Частота : 48,0 КГц
Битовая глубина : 16 бит
Метод сжатия : С потерями
Размер потока : 104 Мбайт (8%)
Заголовок : Русский ЛО (den904 для kosmoaelita.com)
Язык : Russian
Default : Да
Forced : Нет
Аудио #2
Идентификатор : 3
Формат : AC-3
Формат/Информация : Audio Coding 3
Расширение режима : CM (complete main)
Параметр Endianness формата : Big
Идентификатор кодека : A_AC3
Продолжительность : 1 ч. 16 м.
Вид битрейта : Постоянный
Битрейт : 192 Кбит/сек
Каналы : 2 канала
Расположение каналов : Front: L R
Частота : 48,0 КГц
Битовая глубина : 16 бит
Метод сжатия : С потерями
Размер потока : 104 Мбайт (8%)
Язык : German
Default : Нет
Forced : Нет
Текст #1
Идентификатор : 4
Формат : VobSub
Идентификатор кодека : S_VOBSUB
Идентификатор кодека/Информация : The same subtitle format used on DVDs
Заголовок : Русский (Vargnatt) VobSub
Язык : Russian
Default : Да
Forced : Нет
Текст #2
Идентификатор : 5
Формат : UTF-8
Идентификатор кодека : S_TEXT/UTF8
Идентификатор кодека/Информация : UTF-8 Plain Text
Заголовок : Русский (Vargnatt) srt
Язык : Russian
Default : Нет
Forced : Нет
Текст #3
Идентификатор : 6
Формат : VobSub
Идентификатор кодека : S_VOBSUB
Идентификатор кодека/Информация : The same subtitle format used on DVDs
Язык : English
Default : Нет
Forced : Нет
Текст #4
Идентификатор : 7
Формат : VobSub
Идентификатор кодека : S_VOBSUB
Идентификатор кодека/Информация : The same subtitle format used on DVDs
Язык : English
Default : Нет
Forced : Нет
Текст #5
Идентификатор : 8
Формат : UTF-8
Идентификатор кодека : S_TEXT/UTF8
Идентификатор кодека/Информация : UTF-8 Plain Text
Язык : English
Default : Нет
Forced : Нет
Меню
00:00:00.000 : :Chapter 01
00:03:34.840 : :Chapter 02
00:07:34.000 : :Chapter 03
00:11:17.400 : :Chapter 04
00:16:24.960 : :Chapter 05
00:25:36.840 : :Chapter 06
00:34:52.160 : :Chapter 07
00:48:12.200 : :Chapter 08
00:55:48.360 : :Chapter 09
01:00:21.040 : :Chapter 10
01:05:47.680 : :Chapter 11
01:10:24.640 : :Chapter 12
01:15:55.040 : :Chapter 13

Пример субтитров

1
00:00:06,000 --> 00:00:13,000
Релиз www. kosmoaelita. com
Перевод: Vargnatt
2
00:00:30,680 --> 00:00:36,680
ГАЙТАБО
(Haytabo, 1971 год)
3
00:05:13,252 --> 00:05:14,238
Алло?
4
00:05:16,494 --> 00:05:18,645
Вам лучше прийти сюда.
5
00:05:19,141 --> 00:05:22,034
В лабораторию.
Я жду.
6
00:06:28,322 --> 00:06:30,564
Здравствуйте.
Ваша книга.
7
00:06:34,332 --> 00:06:35,569
Что-то ещё?
8
00:06:38,918 --> 00:06:40,555
Нет, большое спасибо.
9
00:08:23,918 --> 00:08:25,162
Дорогая,
10
00:08:27,974 --> 00:08:30,336
ты витала в облаках, да?
11
00:08:33,350 --> 00:08:34,876
Книга у меня.
12
00:08:36,564 --> 00:08:38,197
Ты гонишься за призраком.
13
00:08:38,317 --> 00:08:42,196
Совсем нет, в книге тщательно
зафиксирован эксперимент Зитерлина.
14
00:08:42,316 --> 00:08:44,898
В котором он нашёл средство для бессмертия?
15
00:08:45,018 --> 00:08:47,458
Результаты исследования неизвестны.
16
00:08:47,578 --> 00:08:50,331
Записи обрываются.
17
00:08:50,451 --> 00:08:53,661
Но я уверен, что они есть.
18
00:08:53,921 --> 00:08:56,080
Уверен?
19
00:08:56,081 --> 00:08:57,749
Да.
20
00:09:05,037 --> 00:09:07,140
Я перестала тебя понимать.

Скриншоты



cd Рип дополнительно залит на mail.ru cd2


Last edited by admin on 2015-05-21 15:02; edited 1 time in total
[Profile] [PM]

Guest

Gender: Unknown

Post 13-Oct-2012 14:14 (after 2 days 12 hours)

[Quote]

круто !
 

bot

Post 29-Sep-2013 19:09 (after 11 months 16 days)

Топик был перенесен из форума Новые релизы kosmoaelita.com в форум 1970-1979 г. Расцвет научной фантастики и появление Звездных войн

admin2
 

Guest

Gender: Unknown

Post 29-Sep-2013 19:09 (after 11 months 16 days)

[Quote]

Добавлена озвучка от den904
 
Quick Reply

Name:

            
Heads necessary to send messages to enable JavaScript
Display posts:    
Reply to topic

Current time is: 22-Nov 11:20

All times are UTC + 3



You cannot post new topics in this forum
You can reply to topics in this forum
You cannot edit your posts in this forum
You cannot delete your posts in this forum
You cannot vote in polls in this forum
You cannot attach files in this forum
You cannot download files in this forum