Робо-силы. Месть Назгара / Robo Force. The Revenge of Nazgar (Джон Кимбол) [1984, США, фантастика, DVDRip] (АО : Трамвай фильм)

Ответить на тему
Статистика раздачи
Размер:  145 MB   |    Зарегистрирован:  9 месяцев 3 дня   |    Скачан:  5 раз

Сидов:

Пользователь ULR Отдано Скачано Отдача Загрузка
pompilius 0 0- 0- 0- 0-
показаны данные только за текущую сессию
 
   
 
 
 
Автор Сообщение

Трамвай-фильм ®

Пол: Мужской

Стаж: 4 года 4 месяца

Сообщений: 1346

Откуда: Россия

Создавать темы 11-Мар-2018 16:50

[Цитировать]

Робо-силы. Месть Назгара / Robo Force. The Revenge of Nazgar
Страна: США
Жанр: фантастика
Год выпуска: 1984
Продолжительность: 00:22:00
Перевод: Авторский (одноголосый) Трамвай фильм
Режиссер: Джон Кимбол
Описание: Робо-прихвастни умершего 2000 лет назад диктатора желают его возрождения в образе киборга, для чего похищают знаменитого робототехника. Спустя 10 лет после инцидента сын ученого выходит на тропу войны и поиски отца со своими роботами.
Доп. информация: Пилотный фильм призванный раскрутить продажи одноимённой серии игрушек, так и не получивший продолжения в виде сериала.
Качество видео: DVDRip
Формат видео: MKV
Видео: AVC/H.264, 656x480, ~671 kb/s
Аудио 1: AAC, 2 ch, 128 kb/s (русский)
Аудио 2: AAC, 2 ch, 114 kb/s (английский)
[kp][/kp]

MediaInfo

Video
ID : 1
Format : AVC
Format/Info : Advanced Video Codec
Format profile : Baseline@L3
Format settings, CABAC : No
Format settings, ReFrames : 3 frames
Codec ID : V_MPEG4/ISO/AVC
Duration : 21 min 59 s
Bit rate : 671 kb/s
Width : 656 pixels
Height : 480 pixels
Display aspect ratio : 4:3
Frame rate mode : Constant
Frame rate : 23.976 (24000/1001) FPS
Color space : YUV
Chroma subsampling : 4:2:0
Bit depth : 8 bits
Scan type : Progressive
Bits/(Pixel*Frame) : 0.089
Stream size : 106 MiB (73%)
Writing library : x264 core 142
Encoding settings : cabac=0 / ref=3 / deblock=1:0:0 / analyse=0x1:0x111 / me=hex / subme=7 / psy=1 / psy_rd=1.00:0.00 / mixed_ref=1 / me_range=16 / chroma_me=1 / trellis=1 / 8x8dct=0 / cqm=0 / deadzone=21,11 / fast_pskip=1 / chroma_qp_offset=-2 / threads=6 / lookahead_threads=1 / sliced_threads=0 / nr=0 / decimate=1 / interlaced=0 / bluray_compat=0 / constrained_intra=0 / bframes=0 / weightp=0 / keyint=24 / keyint_min=2 / scenecut=40 / intra_refresh=0 / rc_lookahead=24 / rc=abr / mbtree=1 / bitrate=671 / ratetol=1.0 / qcomp=0.60 / qpmin=0 / qpmax=69 / qpstep=4 / ip_ratio=1.40 / aq=1:1.00
Default : Yes
Forced : No
Audio #1
ID : 2
Format : AAC
Format/Info : Advanced Audio Codec
Format profile : LC
Codec ID : A_AAC
Duration : 21 min 59 s
Bit rate : 128 kb/s
Channel(s) : 2 channels
Channel positions : Front: L R
Sampling rate : 44.1 kHz
Frame rate : 43.066 FPS (1024 spf)
Compression mode : Lossy
Delay relative to video : -23 ms
Stream size : 20.1 MiB (14%)
Language : Russian
Default : Yes
Forced : No
Audio #2
ID : 3
Format : AAC
Format/Info : Advanced Audio Codec
Format profile : LC
Codec ID : A_AAC
Duration : 21 min 59 s
Bit rate : 114 kb/s
Channel(s) : 2 channels
Channel positions : Front: L R
Sampling rate : 44.1 kHz
Frame rate : 43.066 FPS (1024 spf)
Compression mode : Lossy
Delay relative to video : -23 ms
Stream size : 18.0 MiB (12%)
Language : English
Default : No
Forced : No

Скриншоты




Скриншоты

Файл дополнительно залит на ОБЛАКО
Robo-Force.torrent
Торрент: Зарегистрирован [ 2018-03-11 16:50 ]

Скачать .torrent

Скачать

11 KB

Статус: проверено
Скачан: 5 раз
Размер: 145 MB
 
[Профиль] [ЛС]
Быстрый ответ

Имя:

            
Для отправки сообщений необходимо включить JavaScript
Показать сообщения:    
Ответить на тему

Текущее время: 15-Дек 02:26

Часовой пояс: UTC + 3:30



Вы можете начинать темы
Вы можете отвечать на сообщения
Вы можете редактировать свои сообщения
Вы не можете удалять свои сообщения
Вы не можете голосовать в опросах
Вы можете прикреплять файлы к сообщениям
Вы можете скачивать файлы