Границы города / City Limits (Аарон Липстадт / Aaron Lipstadt) [1984, США, фантастика, постапокалипсис, боевик, VHSRip] (АО : В.Рутилов)

Reply to topic
 
Author Message

kosmoaelita2 ®

Gender: Male

Longevity: 6 years 6 months

Posts: 645

Post 04-Mar-2018 03:39

[Quote]

Границы города / City Limits
Страна: США, Film Ventures International (FVI), Island Alive, Sho Films, Videoform
Жанр: фантастика, постапокалипсис, боевик
Год выпуска: 1984
Продолжительность: 01:25:25
Перевод: Авторский (одноголосый) В.Рутилов
Режиссер: Аарон Липстадт / Aaron Lipstadt
В ролях:
John Stockwell ... Lee
Darrell Larson ... Mick
Rae Dawn Chong ... Yogi
James Earl Jones ... Albert
Kim Cattrall ... Wickings
Don Keith Opper ... Sammy
Pamela Ludwig ... Frankie
Tony Plana ... Ramos
Kelly Stuart ... Ruth
Matt Goulish ... Billy
Joanelle Romero ... Woman in Desert (as Joannelle Nadine Romero)
Norbert Weisser ... Bolo
Marcia Holley ... Unfriendly DA
Alan Marcus ... Unfriendly DA
Kane Hodder ... Unfriendly DA
Описание: Годы спустя после того, как загадочная чума уничтожила практически все взрослое население Земли, оставшиеся в живых дети подросли и сформировали жестокие мотоциклетные банды. Молодой парень Ли, уставший от скучной жизни на ферме, отправляется на поиски приключений и вскоре оказывается втянутым в войну между двумя бандами. Ли доказывает свою состоятельность как мужчина и вступает в одну из банд. Но на горизонте появляется новая опасность. Зловещая корпорация «Sunya» хочет использовать членов банды в своих неблагопристойных целях…
Качество видео: VHSRip
Формат: MKV
Видео: x264, 1900 кбит/с, 704x528, 23.976 к/с
Аудио 1: Русский АО (В.Рутилов) (AC3, 2 ch, 192 Кбит/с)
Аудио 2: Английский (AC3, 2 ch, 192 Кбит/с)
Работа над релизом:
Релиз - westerns.ru
Видеоряд найден на синемагеддоне
Русский голос предоставил - monk108



Пример русского перевода:

Дополнительно

слоган «sometimes you have to fight for your future»
Also Known As (AKA)
Brazil City Limits
Finland (video box title) Väkivallan kadut
France City Limits
Greece (video title) Aima stin poli
Greece (transliterated ISO-LATIN-1 title) Ta synora tis polis
Italy (TV title) Ai confini della città
Italy I cavalieri del futuro
Norway Nattens riddere
Poland Granice miasta
Portugal Cidade Selvagem
Съёмки: Февраль 1984 — нет данных
Формат изображения: 1.85 : 1
Камера: Arriflex 35 BL
Формат копии: 35 mm
Формат съёмок: 35 mm
Изображение: цветное
Язык: английский

MediaInfo

Общее
Уникальный идентификатор : 176111899063508806489880386868338258729 (0x847DEB01D8CE320AB68F65D435FC7329)
Полное имя : N:\BD-DISC\City Limits 1984.VHSRip.x264.Rus.kosmoaelita.mkv
Формат : Matroska
Версия формата : Version 4 / Version 2
Размер файла : 1,36 Гбайт
Продолжительность : 1 ч. 25 м.
Общий поток : 2286 Кбит/сек
Название фильма : City Limits / 1984 / VHSRip / kosmoaelita
Дата кодирования : UTC 2018-04-14 04:39:06
Программа кодирования : mkvmerge v6.6.0 ('The Edge Of The In Between') built on Dec 1 2013 17:55:00
Библиотека кодирования : libebml v1.3.0 + libmatroska v1.4.1
Attachments : City Limits (1984) DVDrip DiGiTaLВВВВВВgodd.mkv.encoding.log / POSTER.jpg / Note.txt
Видео
Идентификатор : 1
Формат : AVC
Формат/Информация : Advanced Video Codec
Профиль формата : High@L4.1
Параметр CABAC формата : Да
Параметр ReFrames формата : 8 кадров
Идентификатор кодека : V_MPEG4/ISO/AVC
Продолжительность : 1 ч. 25 м.
Битрейт : 1900 Кбит/сек
Ширина : 704 пикселя
Высота : 528 пикселей
Соотношение сторон : 4:3
Режим частоты кадров : Постоянный
Частота кадров : 23,976 (24000/1001) кадра/сек
Частота кадров в оригинале : 23,976 (23976/1000) кадра/сек
Цветовое пространство : YUV
Субдискретизация насыщенности : 4:2:0
Битовая глубина : 8 бит
Тип развёртки : Прогрессивная
Бит/(Пиксели*Кадры) : 0.213
Размер потока : 1,11 Гбайт (81%)
Заголовок : kosmoaelita
Библиотека кодирования : x264 core 130 r2273 b3065e6
Настройки программы : cabac=1 / ref=8 / deblock=1:-3:-3 / analyse=0x3:0x133 / me=umh / subme=11 / psy=1 / psy_rd=0.99:0.14 / mixed_ref=1 / me_range=24 / chroma_me=1 / trellis=2 / 8x8dct=1 / cqm=0 / deadzone=21,11 / fast_pskip=1 / chroma_qp_offset=-3 / threads=6 / lookahead_threads=1 / sliced_threads=0 / nr=0 / decimate=1 / interlaced=0 / bluray_compat=0 / constrained_intra=0 / bframes=8 / b_pyramid=2 / b_adapt=2 / b_bias=0 / direct=3 / weightb=1 / open_gop=0 / weightp=2 / keyint=210 / keyint_min=21 / scenecut=40 / intra_refresh=0 / rc_lookahead=60 / rc=2pass / mbtree=1 / bitrate=1900 / ratetol=1.0 / qcomp=0.65 / qpmin=0 / qpmax=69 / qpstep=4 / cplxblur=20.0 / qblur=0.5 / ip_ratio=1.25 / aq=1:0.90
Default : Да
Forced : Нет
Statistics Tags Issue : mkvmerge v7.8.0 ('River Man') 32bit built on Mar 27 2015 16:18:02 2018-04-14 04:18:29 / mkvmerge v6.6.0 ('The Edge Of The In Between') built on Dec 1 2013 17:55:00 2018-04-14 04:39:06
FromStats_BitRate : 1900238
FromStats_Duration : 01:25:24.620000000
FromStats_FrameCount : 122868
FromStats_StreamSize : 1217250146
Аудио #1
Идентификатор : 2
Формат : AC-3
Формат/Информация : Audio Coding 3
Расширение режима : CM (complete main)
Параметр Endianness формата : Big
Идентификатор кодека : A_AC3
Продолжительность : 1 ч. 25 м.
Вид битрейта : Постоянный
Битрейт : 192 Кбит/сек
Каналы : 2 канала
Расположение каналов : Front: L R
Частота : 48,0 КГц
Частота кадров : 31,250 кадров/сек (1536 spf)
Метод сжатия : С потерями
Размер потока : 117 Мбайт (8%)
Заголовок : Русский АО (В.Рутилов)
Язык : Russian
Default : Да
Forced : Нет
Аудио #2
Идентификатор : 3
Формат : AC-3
Формат/Информация : Audio Coding 3
Расширение режима : CM (complete main)
Параметр Endianness формата : Big
Идентификатор кодека : A_AC3
Продолжительность : 1 ч. 25 м.
Вид битрейта : Постоянный
Битрейт : 192 Кбит/сек
Каналы : 2 канала
Расположение каналов : Front: L R
Частота : 48,0 КГц
Частота кадров : 31,250 кадров/сек (1536 spf)
Метод сжатия : С потерями
Размер потока : 117 Мбайт (8%)
Язык : English
Default : Нет
Forced : Нет
Statistics Tags Issue : mkvmerge v7.8.0 ('River Man') 32bit built on Mar 27 2015 16:18:02 2018-04-14 04:18:29 / mkvmerge v6.6.0 ('The Edge Of The In Between') built on Dec 1 2013 17:55:00 2018-04-14 04:39:06
FromStats_BitRate : 192000
FromStats_Duration : 01:25:24.608000000
FromStats_FrameCount : 160144
FromStats_StreamSize : 122990592

Скриншоты


















Скринлист

Файл дополнительно залит на ОБЛАКО


Last edited by kosmoaelita2 on 2018-04-15 12:28; edited 3 times in total
[Profile] [PM]

Guest

Gender: Unknown

Post 08-Mar-2018 09:15 (after 4 days)

[Quote]

В чём прикол ? Зарегистрирован: 4 дня , Полного источника не было: 4 дня.
 

croMAG

Gender: Male

Longevity: 3 years 7 months

Posts: 2055

Location: Прибалтика

Post 08-Mar-2018 18:05 (after 8 hours)

[Quote]

valvasder, Прикол в том вероятно что наш Саша не залил на облако Он последнее время оформляет как торрнты и льет на облака Этот фильм видать забыл
[Profile] [PM]

Трамвай-фильм

Gender: Male

Longevity: 4 years 8 months

Posts: 1439

Location: Россия

Post 08-Mar-2018 18:52 (after 47 minutes)

[Quote]

20308valvasder, Прикол в том вероятно что наш Саша не залил на облако Он последнее время оформляет как торрнты и льет на облака Этот фильм видать забыл
Релизы из прошлого на облака не льются и еще из пары разделов, на облака льют только общедоступные фильмы из общедоступных разделов.
[Profile] [PM]

kosmoaelita2 ®

Gender: Male

Longevity: 6 years 6 months

Posts: 645

Post 14-Apr-2018 08:26 (after 1 month 5 days)

[Quote]

Перезалито в лучшем качестве

[Profile] [PM]

snorrinort

Gender: Male

Longevity: 1 year 11 months

Posts: 31

Post 15-Apr-2018 05:42 (after 21 hour)

[Quote]

Перезалито в лучшем качестве
Куда перезалито? bw
[Profile] [PM]

Трамвай-фильм

Gender: Male

Longevity: 4 years 8 months

Posts: 1439

Location: Россия

Post 19-Jul-2018 19:59 (after 3 months 4 days)

[Quote]

как цветопередача меняется
[Profile] [PM]
Display posts:    
Reply to topic

Current time is: 22-Apr 10:06

All times are UTC + 3.5



You cannot post new topics in this forum
You cannot reply to topics in this forum
You cannot edit your posts in this forum
You cannot delete your posts in this forum
You cannot vote in polls in this forum
You cannot attach files in this forum
You cannot download files in this forum