Вампирша / Female Vampire (La comtesse noire) (Хесус Франко) [1973, Франция, Эротика, ужасы] (ЛО : den904) (Sub Rus)

Ответить на тему
 
Автор Сообщение

Susanin ®

Пол: Мужской

Стаж: 4 года 7 месяцев

Сообщений: 794

Создавать темы 15-Фев-2018 14:28

[Цитировать]

Вампирша / Female Vampire (La comtesse noire)
Страна: Франция
Жанр: Эротика, ужасы
Год выпуска: 1973
Продолжительность: 01:40:43
Перевод: Любительский (одноголосый) den904
Cубтитры: русские
Режиссер: Хесус Франко
В ролях: Лина Ромай, Джек Тейлор, Элис Арно, Моника Свинн, Хесус Франко, Луис Барбу, Жан-Пьер Буксоу, Раймон Арди, Анна Ватикан, Гилда Арансио, Роджер Германис, Рикардо Васкез
Описание: Графиня Ирина Карлштейн проживает в отеле на острове Мадейра. Чтобы поддерживать свое бессмертие, она питается жизненными соками мужчин и женщин. Когда находятся новые жертвы, судебный врач Др. Робертс консультируется со своим коллегой Др. Орлофф, и их опасения подтверждаются: возможно, в смерти погибших виноват вампир. Тем временем Ирина встречает поэта, который верит, что предназначен стать ее любовником и войти в круг бессмертных!
Доп. информация: Впервые - нормальный перевод с французского, субтитры от lisok
Релиз

Качество видео: BDRip-1080p
Формат: MKV
Видео: x264, 12000 кбит/с, 1920x812, 23.976 к/с
Аудио 1: Русский ЛО (den904) (AC3, 2 ch, 192 Кбит/с)
Аудио 2: Английский (AC3, 2 ch, 512 Кбит/с)
Субтитры : Русские ()
Работа над релизом:


[kp][/kp]
[imdb][/imdb]
Пример русских субтитров
[vkontakte][/vkontakte]

Дополнительно

Знаете ли вы, что...

Отзывы

Рецензия

Лог кодирования

MediaInfo

Video
ID : 1
Format : AVC
Format/Info : Advanced Video Codec
Format profile : High@L4.1
Format settings, CABAC : Yes
Format settings, ReFrames : 5 frames
Codec ID : V_MPEG4/ISO/AVC
Duration : 1h 41mn
Bit rate : 12.0 Mbps
Width : 1 920 pixels
Height : 812 pixels
Display aspect ratio : 2.35:1
Frame rate mode : Constant
Frame rate : 23.976 fps
Color space : YUV
Chroma subsampling : 4:2:0
Bit depth : 8 bits
Scan type : Progressive
Bits/(Pixel*Frame) : 0.321
Stream size : 8.26 GiB (92%)
Title : Female.Vampire.1973.BluRay.1080p.AC3.x264-CHD
Writing library : x264 core 125 r2208 d9d2288
Encoding settings : cabac=1 / ref=5 / deblock=1:-3:-3 / analyse=0x3:0x113 / me=umh / subme=10 / psy=1 / psy_rd=1.05:0.10 / mixed_ref=1 / me_range=32 / chroma_me=1 / trellis=2 / 8x8dct=1 / cqm=0 / deadzone=21,11 / fast_pskip=0 / chroma_qp_offset=-2 / threads=8 / lookahead_threads=1 / sliced_threads=0 / nr=0 / decimate=1 / interlaced=0 / bluray_compat=0 / constrained_intra=0 / bframes=6 / b_pyramid=2 / b_adapt=2 / b_bias=0 / direct=3 / weightb=1 / open_gop=0 / weightp=2 / keyint=250 / keyint_min=23 / scenecut=40 / intra_refresh=0 / rc=2pass / mbtree=0 / bitrate=11995 / ratetol=1.0 / qcomp=0.70 / qpmin=0 / qpmax=69 / qpstep=4 / cplxblur=20.0 / qblur=0.5 / ip_ratio=1.40 / pb_ratio=1.30 / aq=2:0.90
Language : French
Default : Yes
Forced : Yes
DURATION : 01:40:43.199000000
NUMBER_OF_FRAMES : 144892
NUMBER_OF_BYTES : 9062036465
_STATISTICS_WRITING_APP : mkvmerge v19.0.0 ('Brave Captain') 64-bit
_STATISTICS_WRITING_DATE_UTC : 2018-01-11 18:07:04
_STATISTICS_TAGS : BPS DURATION NUMBER_OF_FRAMES NUMBER_OF_BYTES
Audio #1
ID : 2
Format : AC-3
Format/Info : Audio Coding 3
Mode extension : CM (complete main)
Format settings, Endianness : Big
Codec ID : A_AC3
Duration : 1h 41mn
Bit rate mode : Constant
Bit rate : 192 Kbps
Channel(s) : 2 channels
Channel positions : Front: L R
Sampling rate : 48.0 KHz
Bit depth : 16 bits
Compression mode : Lossy
Stream size : 139 MiB (2%)
Title : АО den904
Language : Russian
Default : Yes
Forced : No
Audio #2
ID : 3
Format : DTS
Format/Info : Digital Theater Systems
Codec ID : A_DTS
Duration : 1h 41mn
Bit rate mode : Constant
Bit rate : 512 Kbps
Channel(s) : 2 channels
Channel positions : Front: L R
Sampling rate : 48.0 KHz
Bit depth : 16 bits
Compression mode : Lossy
Stream size : 371 MiB (4%)
Title : DTS 2.0 510 kbps
Language : French
Default : No
Forced : No
Text
ID : 4
Format : UTF-8
Codec ID : S_TEXT/UTF8
Codec ID/Info : UTF-8 Plain Text
Title : lisok
Language : Russian
Default : Yes
Forced : No

Пример субтитров

Скриншоты

Скринлист

cd Рип дополнительно залит на ОБЛАКО cd2
[Профиль] [ЛС]
Быстрый ответ

Имя:

            
Для отправки сообщений необходимо включить JavaScript
Показать сообщения:    
Ответить на тему

Текущее время: 18-Ноя 07:08

Часовой пояс: UTC + 3:30



Вы не можете начинать темы
Вы можете отвечать на сообщения
Вы не можете редактировать свои сообщения
Вы не можете удалять свои сообщения
Вы не можете голосовать в опросах
Вы не можете прикреплять файлы к сообщениям
Вы не можете скачивать файлы