Голем из Майами / Miami Golem (Альберто Де Мартино / Alberto De Martino (as Martin Herbert)) [1985, Италия, США, фантастика, боевик, SATRip] (ЛО)

Reply to topic
DL-List and Torrent activity
Size:  1.1 GB   |    Registered:  3 years 7 months   |    Completed:  0 times

Seeder not seen: 2 years 8 months

 
   
 
 
 
Author Message

Guest

Gender: Unknown

Longevity: 51 year

Post 03-Feb-2018 17:21

[Quote]

Голем из Майами / Miami Golem
Страна: Италия, США, Filmustang
Жанр: фантастика, боевик
Год выпуска: 1985
Продолжительность: 01:24:30
Перевод: Любительский (одноголосый)
Режиссер: Альберто Де Мартино / Alberto De Martino (as Martin Herbert)
В ролях:
David Warbeck ...Craig Milford
Laura Trotter ...Joanna Fitzgerald
Loris Loddi ...Dr. Elliott (as Lawrence Loddi)
Giorgio Favretto ...Roach (as George Favretto)
John Ireland ...Anderson
Victor Beard ...Inspector Morris (as Victor Loren Beard)
Sergio Rossi ...Professor Schweikert (as Sandy Russell)
Giorgio Bonora ...Dr. Warmick (as George Bonner)
David Baxter
Stefano Mazzitelli ...(as Stephen Masters)
Charles Harris
Alessandra Canale ...Susan (as Sally Cantor)
Pat Starke ...Dr. Janet Stein
Chris Gerard
Mauro Magliozzi ...(as Morry Markham)
Описание: Телерепортер Крэйг Милфорд прошел все горячие точки планеты и, устав от кошмаров войн, решил осесть на маленькой городской телестанции. Однажды ему довелось брать интервью у профессора Швайкера, который синтезировал живую клетку из микроорганизмов, сохранившихся внутри упавшего с неба метеорита. Оставшись после интервью в лаборатории, чтобы сделать макросъемку этого феномена, Милфорд заснял на телекамеру странные видения, носившиеся в воздухе…
Качество видео: SATRip
Формат: MKV
Видео: x264, 1500 кбит/с, 640x384, 25 к/с
Аудио 1: Русский ЛО (AC3, 2 ch, 192 Кбит/с)
Аудио 2: Английский (AC3, 2 ch, 192 Кбит/с)
Аудио 3: Итальянский (MP3, 2 ch, 192 Кбит/с)
Работа над релизом:
Видеоряд найден на синемагеддоне.
Синхронизация и исправление русской и англ. дорожек (22-33 минуты) - kosmoaelita



Пример русского перевода

Дополнительно

слоган «Unborn... Undead... An Alien Force they could not control!»
Формат копии: 35 mm
Формат съёмок: 35 mm
Изображение: цветное
Язык: английский
Also Known As (AKA)
Cosmos Killer
Miami Horror
Finland Miamin verilöyly
France Miami Golem
Greece (transliterated ISO-LATIN-1 title) O exolothreftis tou Miami
Portugal Perigo em Miami

Отзывы

MediaInfo

Общее
Уникальный идентификатор : 178177010395744283646790529042285551367 (0x860BA4DB5DA2EFBF9687EFD59F475F07)
Полное имя : N:\BD-DISC\Miami Golem 1985.XviD.DVBmux.Rus.kosmoaelita.mkv
Формат : Matroska
Версия формата : Version 4 / Version 2
Размер файла : 1,10 Гбайт
Продолжительность : 1 ч. 24 м.
Режим общего битрейта : Переменный
Общий поток : 1856 Кбит/сек
Название фильма : Miami Golem (DVBmux) (1985) [RUS+ENG+ITA]
Дата кодирования : UTC 2018-02-03 12:07:28
Программа кодирования : mkvmerge v6.6.0 ('The Edge Of The In Between') built on Dec 1 2013 17:55:00
Библиотека кодирования : libebml v1.3.0 + libmatroska v1.4.1
Attachments : Poster Golem Miami.jpg
Видео
Идентификатор : 1
Формат : MPEG-4 Visual
Профиль формата : Advanced Simple@L5
Параметр BVOP формата : 2
Параметр QPel формата : Нет
Параметр GMC формата : Без точки перехода
Параметр матрицы формата : Выборочная
Идентификатор кодека : V_MS/VFW/FOURCC / XVID
Идентификатор кодека/Подсказка : XviD
Продолжительность : 1 ч. 24 м.
Ширина : 640 пикселей
Высота : 384 пикселя
Соотношение сторон : 5:3
Режим частоты кадров : Постоянный
Частота кадров : 25,000 кадров/сек
Цветовое пространство : YUV
Субдискретизация насыщенности : 4:2:0
Битовая глубина : 8 бит
Тип развёртки : Прогрессивная
Метод сжатия : С потерями
Заголовок : kosmoaelita
Библиотека кодирования : XviD 1.2.1 (UTC 2008-12-04)
Default : Да
Forced : Нет
Аудио #1
Идентификатор : 2
Формат : AC-3
Формат/Информация : Audio Coding 3
Расширение режима : CM (complete main)
Параметр Endianness формата : Big
Идентификатор кодека : A_AC3
Продолжительность : 1 ч. 24 м.
Вид битрейта : Постоянный
Битрейт : 192 Кбит/сек
Каналы : 2 канала
Расположение каналов : Front: L R
Частота : 48,0 КГц
Частота кадров : 31,250 кадров/сек (1536 spf)
Метод сжатия : С потерями
Размер потока : 116 Мбайт (10%)
Заголовок : Русский ЛО
Язык : Russian
Default : Да
Forced : Нет
Аудио #2
Идентификатор : 3
Формат : AC-3
Формат/Информация : Audio Coding 3
Расширение режима : CM (complete main)
Параметр Endianness формата : Big
Идентификатор кодека : A_AC3
Продолжительность : 1 ч. 24 м.
Вид битрейта : Постоянный
Битрейт : 192 Кбит/сек
Каналы : 2 канала
Расположение каналов : Front: L R
Частота : 48,0 КГц
Частота кадров : 31,250 кадров/сек (1536 spf)
Метод сжатия : С потерями
Размер потока : 116 Мбайт (10%)
Язык : English
Default : Нет
Forced : Нет
Аудио #3
Идентификатор : 4
Формат : MPEG Audio
Версия формата : Version 1
Профиль формата : Layer 3
Режим : Joint stereo
Расширение режима : MS Stereo
Идентификатор кодека : A_MPEG/L3
Идентификатор кодека/Подсказка : MP3
Продолжительность : 1 ч. 24 м.
Вид битрейта : Переменный
Каналы : 2 канала
Частота : 48,0 КГц
Метод сжатия : С потерями
Язык : Italian
Default : Нет
Forced : Нет

Скриншоты























Скринлист

cd Рип дополнительно залит на ОБЛАКО cd2
Miami Golem 1985.XviD.DVBmux.Rus.kosmoaelita.mkv.torrent
Torrent: Registered [ 2018-02-03 17:21 ]

Download .torrent

Download

44 KB

Status: * not checked
Completed: 0 times
Size: 1.1 GB
 
[Profile] [PM]

Трамвай-фильм

Gender: Male

Longevity: 7 years 1 month

Posts: 1896

Location: Россия

Post 03-Feb-2018 21:48 (after 4 hours)

[Quote]

Как же любили итальянцы про американцев снимать.
[Profile] [PM]
Display posts:    
Reply to topic

Current time is: 27-Sep 13:54

All times are UTC + 3



You cannot post new topics in this forum
You cannot reply to topics in this forum
You cannot edit your posts in this forum
You cannot delete your posts in this forum
You cannot vote in polls in this forum
You cannot attach files in this forum
You can download files in this forum