Ночь тысячи наслаждений / Mil sexos tiene la noche / Night of 1,000 Sexes (Jesus Franco / Хесус (Джесс) Франко) [1984, Испания, эротика, мистика] (ЛО : den904) (испанский) (СТ : русские) (СТ : английские)

Ответить на тему
 
Автор Сообщение

Susanin ®

Пол: Мужской

Стаж: 4 года 7 месяцев

Сообщений: 794

Создавать темы 17-Дек-2017 16:13

[Цитировать]

Ночь тысячи наслаждений / Mil sexos tiene la noche / Night of 1,000 Sexes
Страна: Испания
Жанр: эротика, мистика
Год выпуска: 1984
Продолжительность: 01:32:15
Перевод: Любительский (одноголосый) _ den904
Перевод 2: Не требуется __ испанский
Перевод 3: Субтитры ___ русские
Перевод 4: Субтитры ____ английские
Режиссер: Jesus Franco / Хесус (Джесс) Франко
В ролях: Лина Ромай, Дэниэл Кац, Кармен Каррион, Альбиньо Грациани, Хосе Льямас, Алисия Принсипе, Лия Каплан, Мауро Рибера, Хесус Франко, Антонио Маянс
Описание: Нина — медиум. Вместе со своим любовником она дает сеансы спиритизма. Однажды во время выступления она пророчит смерть зрителю. Предсказание сбывается. Неожиданно Нину начинают мучить кошмары, что она убивает людей. Она обращается за помощью к психиатру...

MediaInfo

General
Unique ID : 175975805386101411793317648715746576291 (0x8463B512245BC0A9940C4138761307A3)
Complete name : E:\VIDEO\Jesus Franco\Mil sexos tiene la noche.BDRip.720p.1984.mkv
Format : Matroska
Format version : Version 4 / Version 2
File size : 6.39 GiB
Duration : 1 h 32 min
Overall bit rate : 9 921 kb/s
Encoded date : UTC 2017-12-16 17:49:46
Writing application : mkvmerge v18.0.0 ('Apricity') 64-bit
Writing library : libebml v1.3.5 + libmatroska v1.4.8
Cover : Yes
Attachments : cover.jpg
Video
ID : 1
Format : AVC
Format/Info : Advanced Video Codec
Format profile : High@L4.1
Format settings : CABAC / 12 Ref Frames
Format settings, CABAC : Yes
Format settings, RefFrames : 12 frames
Codec ID : V_MPEG4/ISO/AVC
Duration : 1 h 32 min
Bit rate : 9 535 kb/s
Width : 1 280 pixels
Height : 536 pixels
Display aspect ratio : 2.40:1
Frame rate mode : Constant
Frame rate : 23.976 (24000/1001) FPS
Color space : YUV
Chroma subsampling : 4:2:0
Bit depth : 8 bits
Scan type : Progressive
Bits/(Pixel*Frame) : 0.580
Stream size : 6.14 GiB (96%)
Writing library : x264 core 148 r2762.19 8f6f579 VietHD_Custom
Encoding settings : cabac=1 / ref=12 / deblock=1:-3:-3 / analyse=0x3:0x133 / me=umh / subme=10 / psy=1 / fade_compensate=0.00 / psy_rd=1.20:0.00 / mixed_ref=1 / me_range=24 / chroma_me=1 / trellis=2 / 8x8dct=1 / cqm=0 / deadzone=21,11 / fast_pskip=0 / chroma_qp_offset=-2 / threads=17 / lookahead_threads=2 / sliced_threads=0 / nr=0 / decimate=0 / interlaced=0 / bluray_compat=0 / constrained_intra=0 / fgo=0 / bframes=7 / b_pyramid=2 / b_adapt=2 / b_bias=0 / direct=3 / weightb=1 / open_gop=0 / weightp=2 / keyint=250 / keyint_min=23 / scenecut=40 / intra_refresh=0 / rc_lookahead=60 / rc=crf / mbtree=0 / crf=17.5000 / qcomp=0.68 / qpmin=0:0:0 / qpmax=69:69:69 / qpstep=4 / vbv_maxrate=62500 / vbv_bufsize=78125 / crf_max=0.0 / nal_hrd=none / filler=0 / ip_ratio=1.30 / pb_ratio=1.20 / aq=3:0.60 / aq-sensitivity=10.00 / aq-factor=1.00:1.00:1.00 / aq2=0 / aq3=0
Language : English
Default : Yes
Forced : No
Audio #1
ID : 2
Format : AC-3
Format/Info : Audio Coding 3
Codec ID : A_AC3
Duration : 1 h 32 min
Bit rate mode : Constant
Bit rate : 192 kb/s
Channel(s) : 2 channels
Channel positions : Front: L R
Sampling rate : 48.0 kHz
Frame rate : 31.250 FPS (1536 SPF)
Bit depth : 16 bits
Compression mode : Lossy
Stream size : 127 MiB (2%)
Title : ЛО den904
Language : Russian
Service kind : Complete Main
Default : Yes
Forced : No
Audio #2
ID : 3
Format : AC-3
Format/Info : Audio Coding 3
Codec ID : A_AC3
Duration : 1 h 32 min
Bit rate mode : Constant
Bit rate : 192 kb/s
Channel(s) : 2 channels
Channel positions : Front: L R
Sampling rate : 48.0 kHz
Frame rate : 31.250 FPS (1536 SPF)
Bit depth : 16 bits
Compression mode : Lossy
Stream size : 127 MiB (2%)
Language : Spanish
Service kind : Complete Main
Default : No
Forced : No
Text #1
ID : 4
Format : UTF-8
Codec ID : S_TEXT/UTF8
Codec ID/Info : UTF-8 Plain Text
Duration : 1 h 31 min
Bit rate : 21 b/s
Count of elements : 303
Stream size : 14.2 KiB (0%)
Language : Russian
Default : No
Forced : No
Text #2
ID : 5
Format : UTF-8
Codec ID : S_TEXT/UTF8
Codec ID/Info : UTF-8 Plain Text
Duration : 1 h 31 min
Bit rate : 13 b/s
Count of elements : 302
Stream size : 8.75 KiB (0%)
Language : English
Default : Yes
Forced : No

Скриншоты

[Профиль] [ЛС]
Быстрый ответ

Имя:

            
Для отправки сообщений необходимо включить JavaScript
Показать сообщения:    
Ответить на тему

Текущее время: 18-Ноя 07:07

Часовой пояс: UTC + 3:30



Вы не можете начинать темы
Вы можете отвечать на сообщения
Вы не можете редактировать свои сообщения
Вы не можете удалять свои сообщения
Вы не можете голосовать в опросах
Вы не можете прикреплять файлы к сообщениям
Вы не можете скачивать файлы