Голди Голд и "Экшн" Джек / Goldie Gold and Action Jack (Руди Ларрива и Джон Кимбл) [1981, США, фантастика, приключения, VHSRip] [(1-13 из 13)] (АО : Трамвай фильм)

Ответить на тему
Статистика раздачи
Размер:  1,42 GB   |    Зарегистрирован:  6 месяцев 4 дня   |    Скачан:  0 раз

Полного источника не было: 7 часов

 
   
 
 
 
Автор Сообщение

Трамвай-фильм ®

Пол: Мужской

Стаж: 4 года 3 месяца

Сообщений: 1338

Откуда: Россия

Создавать темы 16-Дек-2017 14:42

[Цитировать]

Голди Голд и "Экшн" Джек / Goldie Gold and Action Jack / (13 из 13)
Страна: США
Жанр: фантастика, приключения
Год выпуска: 1981
Продолжительность: 00:20:16
Серии: 1-13 из 13
Перевод: Авторский (одноголосый) Трамвай фильм
Cубтитры: нет
Режиссеры: Руди Ларрива и Джон Кимбл
Описание: Голди Голд - самая богатая девушка в мире и Джек "Экшен" Тревис, её репортер, который работает в газете "Голд Стрит Джорнал", вместе они в воздухе, в море, не просиживая штанов - они путешествуют по миру в поисках приключений!
Доп. информация: Сериал выдержан в стиле приключений Индианы Джонса и аналогичных авантюристов с обильным применением супер-гаджетов, под стать Джеймсу Бонду. И конечно много тайн и загадок, которые Голди и Джек должны разгадать!
Все 13 серий найдены!
1 "Night of the Crystal Skull" September 12, 1981
2 "Pirate of the Airways" September 19, 1981
3 "Red Dust of Doom" September 26, 1981
4 "Revenge of the Ancient Astronaut" October 3, 1981
5 "Prophet of Doom" October 10, 1981
6 "Night of the Walking Doom" October 17, 1981
7 "Island of Terror" October 24, 1981
8 "Curse of the Snake People" October 31, 1981
9 "Race Against Time" November 7, 1981
10 "Menace of the Medallion" November 14, 1981
11 "Pursuit Into Peril" November 21, 1981
12 "The Return of the Man Beast" November 28, 1981
13 "The Goddess of the Black Pearl" December 5, 1981

Качество видео: VHSRip
Видео: MPEG4 H.264, 480x360, ~387 kb/s
Аудио 1: AAC, 2 ch, 128 kb/s (русский)
Аудио 2: AAC, 2 ch, 96 kb/s (английский)
Работа над релизом:


[kp][/kp]

MediaInfo

Format : Matroska
Format version : Version 4 / Version 2
File size : 89.2 MiB
Duration : 20 min 16 s
Overall bit rate : 615 kb/s
Encoded date : UTC 2017-10-14 10:08:04
Writing application : mkvmerge v7.1.0 ('Good Love') 32bit built on Jul 27 2014 12:59:18
Writing library : libebml v1.3.0 + libmatroska v1.4.1
Video
ID : 1
Format : AVC
Format/Info : Advanced Video Codec
Format profile : Baseline@L3
Format settings, CABAC : No
Format settings, ReFrames : 1 frame
Codec ID : V_MPEG4/ISO/AVC
Duration : 20 min 16 s
Bit rate : 387 kb/s
Width : 480 pixels
Height : 360 pixels
Display aspect ratio : 4:3
Frame rate mode : Constant
Frame rate : 29.970 (30000/1001) FPS
Color space : YUV
Chroma subsampling : 4:2:0
Bit depth : 8 bits
Scan type : Progressive
Bits/(Pixel*Frame) : 0.075
Stream size : 56.2 MiB (63%)
Default : Yes
Forced : No
Audio #1
ID : 2
Format : AAC
Format/Info : Advanced Audio Codec
Format profile : LC
Codec ID : A_AAC
Duration : 20 min 16 s
Bit rate : 128 kb/s
Channel(s) : 2 channels
Channel positions : Front: L R
Sampling rate : 44.1 kHz
Frame rate : 43.066 FPS (1024 spf)
Compression mode : Lossy
Stream size : 18.6 MiB (21%)
Language : Russian
Default : Yes
Forced : No
Audio #2
ID : 3
Format : AAC
Format/Info : Advanced Audio Codec
Format profile : LC
Codec ID : A_AAC
Duration : 20 min 16 s
Bit rate : 96.0 kb/s
Channel(s) : 2 channels
Channel positions : Front: L R
Sampling rate : 44.1 kHz
Frame rate : 43.066 FPS (1024 spf)
Compression mode : Lossy
Stream size : 13.9 MiB (16%)
Language : English
Default : No
Forced : No

Скриншоты




cd Рип дополнительно залит на ОБЛАКО cd2
Goldie.Gold.And.Action.Jack.1981.torrent
Торрент: Зарегистрирован [ 2018-05-13 15:26 ]

Скачать .torrent

Скачать

15 KB

Статус: проверено
Скачан: 0 раз
Размер: 1,42 GB
 


Последний раз редактировалось: Трамвай-фильм (2018-05-13 15:34), всего редактировалось 3 раз(а)
[Профиль] [ЛС]

Трамвай-фильм ®

Пол: Мужской

Стаж: 4 года 3 месяца

Сообщений: 1338

Откуда: Россия

Создавать темы 17-Дек-2017 12:53 (спустя 22 часа)

[Цитировать]

pompilius, так вот кто с меня через американский прокси тянет 3,7 кб/с!
[Профиль] [ЛС]

kosmoaelita2

Пол: Мужской

Стаж: 6 лет 1 месяц

Сообщений: 444

Создавать темы 17-Дек-2017 13:48 (спустя 55 минут)

[Цитировать]

Зачем тянуть. если залито на облако?
[Профиль] [ЛС]

Трамвай-фильм ®

Пол: Мужской

Стаж: 4 года 3 месяца

Сообщений: 1338

Откуда: Россия

Создавать темы 17-Дек-2017 13:49 (спустя 45 секунд)

[Цитировать]

Не знаю, но кто-то тянет с черепашей скоростью, вижу у pompilius-а примерно схожий результат
Кстати,"Сказки" будем добавлять?
[Профиль] [ЛС]

kosmoaelita2

Пол: Мужской

Стаж: 6 лет 1 месяц

Сообщений: 444

Создавать темы 17-Дек-2017 13:50 (спустя 1 минута)

[Цитировать]

Да, через час залью
[Профиль] [ЛС]

Трамвай-фильм ®

Пол: Мужской

Стаж: 4 года 3 месяца

Сообщений: 1338

Откуда: Россия

Создавать темы 17-Дек-2017 13:53 (спустя 2 минуты)

[Цитировать]

ОК. Постараюсь до конца года дать оставшуюся серию.
[Профиль] [ЛС]

pompilius

Пол: Мужской

Стаж: 1 год

Сообщений: 107

Создавать темы 17-Дек-2017 20:41 (спустя 6 часов)

[Цитировать]

20101pompilius, так вот кто с меня через американский прокси тянет 3,7 кб/с!
Вроде в клиенте не настроены прокси, да и в системе тоже. Только для рутрекера стоит програмка, чтобы анонсеры пробрасывала...
20104Зачем тянуть. если залито на облако?
Когда начал качать ещё на облаке не было, а так бы с него и скачал))
[Профиль] [ЛС]

Трамвай-фильм ®

Пол: Мужской

Стаж: 4 года 3 месяца

Сообщений: 1338

Откуда: Россия

Создавать темы 13-Май-2018 16:05 (спустя 4 месяца 26 дней)

[Цитировать]

Наконец-то я добил этот сериал
[Профиль] [ЛС]
Показать сообщения:    
Ответить на тему

Текущее время: 18-Ноя 07:07

Часовой пояс: UTC + 3:30



Вы не можете начинать темы
Вы не можете отвечать на сообщения
Вы не можете редактировать свои сообщения
Вы не можете удалять свои сообщения
Вы не можете голосовать в опросах
Вы не можете прикреплять файлы к сообщениям
Вы можете скачивать файлы