Городские воины / Urban Warriors (Джузеппе Вери / Giuseppe Vari) [1987, Италия, фантастика, боевик, постапокалипсис, VHSRip] (АО : В.Котов)

Reply to topic
 
Author Message

kosmoaelita2 ®

Gender: Male

Longevity: 6 years 8 months

Posts: 744

Post 23-Nov-2017 09:34

[Quote]

Городские воины / Urban Warriors
Страна: Италия, Immagine Productions, L'immagine S.r.l.
Жанр: фантастика, боевик, постапокалипсис
Год выпуска: 1987
Продолжительность: 01:28:27
Перевод: Авторский (одноголосый) В.Котов
Режиссер: Джузеппе Вери / Giuseppe Vari
В ролях:
Bruno Bilotta ... Brad (as Karl Landgren)
Alex Vitale ... Mutant Leader
Bjorn Hammer ... Maury
Maurice Poli ... Stan
Rosenda Scharschmidt ... Mutant Woman (as Rosenda Schaschmidt)
Malisa Longo ... Julia (as Malisa Lang)
Tiziana Altieri ... Angela
rest of cast listed alphabetically:
Tommaso Mesto ... (archive footage)
Giovanni Cianfriglia ... Walker (archive footage) (uncredited)
Stefano Davanzati ... Melvin (archive footage) (uncredited)
Luca Giordana ... Phil (archive footage) (uncredited)
Renato Miracco ... Louis (archive footage) (uncredited)
Harrison Muller ... White-scarfed Biker (archive footage) (uncredited)
Maria Romano ... Magda (archive footage) (uncredited)
Описание: Молодой ученый Брэд и двое других сотрудников подземной научно-исследовательской лаборатории уже собирались закончить свой рабочий день, когда мощный взрыв обесточивает лабораторию. После нескольких тщетных попыток связаться с центральной базой, Брэд и его коллеги решают подняться на поверхность, но обнаруживают, что ядерная война уничтожила практически все население Земли. Оставшиеся в живых ученые отправляются на поиски воды и пищи, но не успев подняться на поверхность, их атакует банда мутантов, которые собираются употребить ученых в пищу. Теперь Брэду и его остальным выжившим ученым предстоит дать отпор, банде голодных каннибалов…
Качество: VHSRip
Формат: MKV
Видео: x264, 1811 кбит/с, 640x444, 23.976 к/с
Аудио 1: Русский АО (В.Котов) (AC3, 2 ch, 192 Кбит/с)
Аудио 2: Английский (AC3, 2 ch, 192 Кбит/с)
Работа над релизом:
Релиз westerns.ru
Перевод с англ.: Вячеслав Котов (спасибо monk108)
Видеоряд найден в сети



Пример русского перевода

Дополнительно

слоган «Meet the Future's Ultimate Weapon!»
Also Known As (AKA)
Denmark (video title) Byens krigere
Spain Guerreros de la ciudad
Finland Viimeiset taistelijat
Greece (transliterated ISO-LATIN-1 title) Ektelestis ton poleon
Greece (reissue title) O teleftaios exolothreftis
Italy Urban Warriors
Portugal Os Guerreiros do Futuro

Рецензия

MediaInfo

Общее
Уникальный идентификатор : 214200572324546479918987685987658996559 (0xA12587961FF376DFAE5D53200C039B4F)
Полное имя : F:\Downloads\0 НА ПЕРЕВОД\В ПРОЦЕССЕ\Urban Warriors 1987.XviD.VHSrip.Rus.mkv
Формат : Matroska
Версия формата : Version 4 / Version 2
Размер файла : 1,36 Гбайт
Продолжительность : 1 ч. 28 м.
Общий поток : 2198 Кбит/сек
Название фильма : Urban Warriors 1987.XviD.VHSrip
Дата кодирования : UTC 2017-11-23 03:53:08
Программа кодирования : mkvmerge v6.6.0 ('The Edge Of The In Between') built on Dec 1 2013 17:55:00
Библиотека кодирования : libebml v1.3.0 + libmatroska v1.4.1
Attachments : poster.jpg
Видео
Идентификатор : 1
Формат : AVC
Формат/Информация : Advanced Video Codec
Профиль формата : High@L4.1
Параметр CABAC формата : Да
Параметр ReFrames формата : 8 кадров
Идентификатор кодека : V_MPEG4/ISO/AVC
Продолжительность : 1 ч. 28 м.
Битрейт : 1811 Кбит/сек
Ширина : 640 пикселей
Высота : 444 пикселя
Соотношение сторон : 1,441
Режим частоты кадров : Постоянный
Частота кадров : 23,976 (24000/1001) кадра/сек
Частота кадров в оригинале : 23,976 (23976/1000) кадра/сек
Цветовое пространство : YUV
Субдискретизация насыщенности : 4:2:0
Битовая глубина : 8 бит
Тип развёртки : Прогрессивная
Бит/(Пиксели*Кадры) : 0.266
Размер потока : 1,09 Гбайт (81%)
Заголовок : kosmoaelita
Библиотека кодирования : x264 core 130 r2273 b3065e6
Настройки программы : cabac=1 / ref=8 / deblock=1:-3:-3 / analyse=0x3:0x133 / me=umh / subme=11 / psy=1 / psy_rd=0.99:0.14 / mixed_ref=1 / me_range=24 / chroma_me=1 / trellis=2 / 8x8dct=1 / cqm=0 / deadzone=21,11 / fast_pskip=1 / chroma_qp_offset=-3 / threads=6 / lookahead_threads=1 / sliced_threads=0 / nr=0 / decimate=1 / interlaced=0 / bluray_compat=0 / constrained_intra=0 / bframes=8 / b_pyramid=2 / b_adapt=2 / b_bias=0 / direct=3 / weightb=1 / open_gop=0 / weightp=2 / keyint=210 / keyint_min=21 / scenecut=40 / intra_refresh=0 / rc_lookahead=60 / rc=2pass / mbtree=1 / bitrate=1811 / ratetol=1.0 / qcomp=0.65 / qpmin=0 / qpmax=69 / qpstep=4 / cplxblur=20.0 / qblur=0.5 / ip_ratio=1.25 / aq=1:0.90
Default : Да
Forced : Нет
Statistics Tags Issue : mkvmerge v7.8.0 ('River Man') 32bit built on Mar 27 2015 16:18:02 2017-11-21 03:12:07 / mkvmerge v6.6.0 ('The Edge Of The In Between') built on Dec 1 2013 17:55:00 2017-11-23 03:53:08
FromStats_BitRate : 1811357
FromStats_Duration : 01:28:27.219000000
FromStats_FrameCount : 127246
FromStats_StreamSize : 1201659068
Аудио #1
Идентификатор : 2
Формат : AC-3
Формат/Информация : Audio Coding 3
Расширение режима : CM (complete main)
Параметр Endianness формата : Big
Идентификатор кодека : A_AC3
Продолжительность : 1 ч. 28 м.
Вид битрейта : Постоянный
Битрейт : 192 Кбит/сек
Каналы : 2 канала
Расположение каналов : Front: L R
Частота : 48,0 КГц
Частота кадров : 31,250 кадров/сек (1536 spf)
Метод сжатия : С потерями
Размер потока : 121 Мбайт (9%)
Заголовок : Русский АО (В.Котов)
Язык : Russian
Default : Да
Forced : Нет
Statistics Tags Issue : mkvmerge v7.8.0 ('River Man') 32bit built on Mar 27 2015 16:18:02 2017-11-21 03:12:07 / mkvmerge v6.6.0 ('The Edge Of The In Between') built on Dec 1 2013 17:55:00 2017-11-23 03:53:08
FromStats_BitRate : 192000
FromStats_Duration : 01:28:27.264000000
FromStats_FrameCount : 165852
FromStats_StreamSize : 127374336
Аудио #2
Идентификатор : 3
Формат : MPEG Audio
Версия формата : Version 1
Профиль формата : Layer 2
Режим : Joint stereo
Расширение режима : Intensity Stereo + MS Stereo
Идентификатор кодека : A_MPEG/L2
Идентификатор кодека/Подсказка : MP2
Продолжительность : 1 ч. 28 м.
Вид битрейта : Постоянный
Битрейт : 192 Кбит/сек
Каналы : 2 канала
Частота : 48,0 КГц
Метод сжатия : С потерями
Размер потока : 121 Мбайт (9%)
Язык : English
Default : Нет
Forced : Нет

Скриншоты




















Скринлист

[Profile] [PM]

Omen

Gender: Unknown

Longevity: 1 year 1 month

Posts: 11

Post 09-May-2018 03:07 (after 5 months 15 days)

[Quote]

А можете, пожалуйста, залить на ФО?
[Profile] [PM]

Трамвай-фильм

Gender: Male

Longevity: 4 years 10 months

Posts: 1460

Location: Россия

Post 09-May-2018 14:03 (after 10 hours)

[Quote]

Из этого раздела на облака ничего не льют.
[Profile] [PM]
Display posts:    
Reply to topic

Current time is: 21-Jun 00:36

All times are UTC + 3



You cannot post new topics in this forum
You cannot reply to topics in this forum
You cannot edit your posts in this forum
You cannot delete your posts in this forum
You cannot vote in polls in this forum
You cannot attach files in this forum
You cannot download files in this forum