Молодая сила / Teen Force (Рэй Паттерсон, Руди Замора и Джордж Гордон) [1981, США, фантастика, приключения, VHSRip] (сериал 8 из 13) (АО : Трамвай фильм)

Ответить на тему
Статистика раздачи
Размер:  291 MB   |    Зарегистрирован:  1 год 1 месяц   |    Скачан:  1 раз

Полного источника не было: 23 часа

 
   
 
 
 
Автор Сообщение

Трамвай-фильм ®

Пол: Мужской

Стаж: 4 года 4 месяца

Сообщений: 1346

Откуда: Россия

Создавать темы 12-Ноя-2017 14:36

[Цитировать]

Молодая сила / Teen Force
Страна: США
Жанр: фантастика, приключения
Год выпуска: 1981
Продолжительность: 00:07:26
Серии: 8 из 13
Перевод: Авторский (одноголосый) Трамвай фильм
Режиссер: Рэй Паттерсон, Руди Замора и Джордж Гордон
Описание: Из "Черной дыры Х" в наш мир приходят супер-герои, команда, известная как Молодая сила, что бы противостоять кибернетическому обезьяно-человеку Аглору, и его амбициям на мировое господство.
Доп. информация: В начале 1990-х этот мульт крутил Cartoon Network, который у нас шёл с Индийского спутника. Записей сохранилось только 8 из 13, сериал вроде бы есть на DVD в составе сборника "Space Stars", но зариповать его я не успел, поэтому только VHS. Если кто знает, где взять DVD - просьба сообщить, переделаю весь сериал.
Качество видео: VHSRip
Формат видео: MKV
Видео: MPEG4 Video (H264), 534x360, 23.976fps, 397 kb/s
Аудио 1: AAC, 44100Hz, stereo, 128 kb/s [A: Russian]
Аудио 2: AAC, 44100Hz, stereo, 96 kb/s [A: English]

MediaInfo

Video
ID : 1
Format : AVC
Format/Info : Advanced Video Codec
Format profile : Baseline@L2.1
Format settings, CABAC : No
Format settings, ReFrames : 1 frame
Codec ID : V_MPEG4/ISO/AVC
Duration : 7 min 26 s
Bit rate : 397 kb/s
Width : 534 pixels
Height : 360 pixels
Display aspect ratio : 3:2
Frame rate mode : Constant
Frame rate : 23.976 (24000/1001) FPS
Color space : YUV
Chroma subsampling : 4:2:0
Bit depth : 8 bits
Scan type : Progressive
Bits/(Pixel*Frame) : 0.086
Stream size : 21.1 MiB (64%)
Default : Yes
Forced : No
Audio #1
ID : 2
Format : AAC
Format/Info : Advanced Audio Codec
Format profile : LC
Codec ID : A_AAC
Duration : 7 min 26 s
Bit rate : 128 kb/s
Channel(s) : 2 channels
Channel positions : Front: L R
Sampling rate : 44.1 kHz
Frame rate : 43.066 FPS (1024 spf)
Compression mode : Lossy
Stream size : 6.81 MiB (20%)
Language : Russian
Default : Yes
Forced : No
Audio #2
ID : 3
Format : AAC
Format/Info : Advanced Audio Codec
Format profile : LC
Codec ID : A_AAC
Duration : 7 min 26 s
Bit rate : 96.0 kb/s
Channel(s) : 2 channels
Channel positions : Front: L R
Sampling rate : 44.1 kHz
Frame rate : 43.066 FPS (1024 spf)
Compression mode : Lossy
Stream size : 5.11 MiB (15%)
Default : No
Forced : No

Скриншоты



teen-force.torrent
Торрент: Зарегистрирован [ 2017-11-12 14:36 ]

Скачать .torrent

Скачать

12 KB

Статус: проверено
Скачан: 1 раз
Размер: 291 MB
 
[Профиль] [ЛС]

Djon88SS

Пол: Мужской

Стаж: 4 года 11 месяцев

Сообщений: 750

Создавать темы 26-Ноя-2017 20:53 (спустя 14 дней)

[Цитировать]

Раздать бы это? Качать всего 20-30 минут.
[Профиль] [ЛС]

Трамвай-фильм ®

Пол: Мужской

Стаж: 4 года 4 месяца

Сообщений: 1346

Откуда: Россия

Создавать темы 26-Ноя-2017 22:38 (спустя 1 час 44 минуты)

[Цитировать]

20042Раздать бы это? Качать всего 20-30 минут.
я на раздаче всегда, даже принудительно поставил. Но когда мне дают серый IP (а это 70% времени) - трудно отдавать.
Очень ищу DVD, если что
[Профиль] [ЛС]
Показать сообщения:    
Ответить на тему

Текущее время: 15-Дек 01:02

Часовой пояс: UTC + 3:30



Вы не можете начинать темы
Вы не можете отвечать на сообщения
Вы не можете редактировать свои сообщения
Вы не можете удалять свои сообщения
Вы не можете голосовать в опросах
Вы не можете прикреплять файлы к сообщениям
Вы можете скачивать файлы