Молодая сила / Teen Force (Рэй Паттерсон, Руди Замора и Джордж Гордон) [1981, США, фантастика, приключения, WebRip] (1-11 из 11) (АО : Трамвай фильм)

Reply to topic
DL-List and Torrent activity
Size:  394 MB   |    Registered:  1 month 8 days   |    Completed:  2 times

Seeders:

Username ULR UL DL UL speed DL speed
pompilius 0 0- 0- 0- 0-
shows data only for the current session
 
   
 
 
 
Author Message

Трамвай-фильм ®

Gender: Male

Longevity: 5 years

Posts: 1493

Location: Россия

Post 12-Nov-2017 14:06

[Quote]

Молодая сила / Teen Force
Страна: США
Жанр: фантастика, приключения
Год выпуска: 1981
Продолжительность: 00:07:28
Серии: 11 из 11
Перевод: Авторский (одноголосый) Трамвай фильм
Режиссеры: Рэй Паттерсон, Руди Замора и Джордж Гордон
Описание: Из "Черной дыры Х" в наш мир приходят супер-герои, команда, известная как Молодая сила, что бы противостоять кибернетическому обезьяно-человеку Аглору, и его амбициям на мировое господство.
Доп. информация: В начале 1990-х этот мульт крутил Cartoon Network, который у нас шёл с Индийского спутника. Выходил в блоке Звезды Космоса / Space Stars.
Качество видео: WebRip
Формат видео: AVI
Видео: Xvid, 512x384, 29fps, 528 kbps
Аудио: MP3, 44100Hz, stereo, 128 kbps

MediaInfo

Format : AVI
Format/Info : Audio Video Interleave
File size : 36.0 MiB
Duration : 7 min 28 s
Overall bit rate : 674 kb/s
Video
ID : 0
Format : MPEG-4 Visual
Format profile : Simple@L3
Format settings, BVOP : No
Format settings, QPel : No
Format settings, GMC : No warppoints
Format settings, Matrix : Default (H.263)
Codec ID : XVID
Codec ID/Hint : XviD
Duration : 7 min 28 s
Bit rate : 528 kb/s
Width : 512 pixels
Height : 384 pixels
Display aspect ratio : 4:3
Frame rate : 29.970 (30000/1001) FPS
Original frame rate : 29.000 FPS
Color space : YUV
Chroma subsampling : 4:2:0
Bit depth : 8 bits
Scan type : Progressive
Compression mode : Lossy
Bits/(Pixel*Frame) : 0.090
Stream size : 28.2 MiB (78%)
Writing library : XviD 1.2.1 (UTC 2008-12-04)
Audio
ID : 1
Format : MPEG Audio
Format version : Version 1
Format profile : Layer 3
Format settings : Joint stereo / MS Stereo
Codec ID : 55
Codec ID/Hint : MP3
Duration : 7 min 28 s
Bit rate mode : Constant
Bit rate : 128 kb/s
Channel(s) : 2 channels
Sampling rate : 44.1 kHz
Compression mode : Lossy
Stream size : 6.85 MiB (19%)
Alignment : Aligned on interleaves
Interleave, duration : 26 ms (0.78 video frame)
Writing library : LAME3.98.2

Скриншоты






Teen.Force.torrent
Torrent: Registered [ 2019-07-11 20:38 ]

Download .torrent

Download

16 KB

Status: checked
Completed: 2 times
Size: 394 MB
 


Last edited by Трамвай-фильм on 2019-07-11 20:40; edited 2 times in total
[Profile] [PM]

Guest

Gender: Unknown

Post 26-Nov-2017 20:23 (after 14 days)

[Quote]

Раздать бы это? Качать всего 20-30 минут.
 

Трамвай-фильм ®

Gender: Male

Longevity: 5 years

Posts: 1493

Location: Россия

Post 26-Nov-2017 22:08 (after 1 hour 44 minutes)

[Quote]

20042Раздать бы это? Качать всего 20-30 минут.
я на раздаче всегда, даже принудительно поставил. Но когда мне дают серый IP (а это 70% времени) - трудно отдавать.
Очень ищу DVD, если что
[Profile] [PM]

Трамвай-фильм ®

Gender: Male

Longevity: 5 years

Posts: 1493

Location: Россия

Post 11-Jul-2019 20:40 (after 1 year 7 months)

[Quote]

Обновление раздачи: добавлены недостающие 3 серии, замена кассетных рипов на вэб-рипы
[Profile] [PM]
Quick Reply

Name:

            
Heads necessary to send messages to enable JavaScript
Display posts:    
Reply to topic

Current time is: 20-Aug 10:20

All times are UTC + 3



You can post new topics in this forum
You can reply to topics in this forum
You cannot edit your posts in this forum
You cannot delete your posts in this forum
You cannot vote in polls in this forum
You cannot attach files in this forum
You can download files in this forum