Солнечный спутник / Satellite in the Sky (Пол Диксон / Paul Dickson) [1956 г., фантастика, драма, DVDRip-AVC] ЛО (den904), СТ (Lisok)

Reply to topic
 
Author Message

admin ®

Gender: Male

Longevity: 7 years 2 months

Posts: 4723

Post 07-Oct-2012 15:55

[Quote]

Солнечный спутник / Satellite in the Sky
Год выпуска: 1956
Страна: Великобритания
Жанр: фантастика, драма
Продолжительность: 01:24:27
Перевод 1: ЛО (kosmoaelita,den904)
Перевод 2: Субтитры Lisok
Режиссер: Пол Диксон / Paul Dickson
В ролях: Кирон Мур, Лоис Максуэлл, Дональд Вулфит, Брайан Форбс, Джимми Хэнли, Бэрри Кигэн, Дональд Грэй
Описание: Журналисты со всего мира приехали на территорию военно-воздушной базы Великобритании, чтобы присутствовать на знаменательном событии. В ближайшие дни, нет — часы должен состояться триумф британской науки и техники. Ученые страны разработали и создали летательный аппарат способный преодолеть оковы земной гравитации и выйти на орбиту Земли с человеком на борту. За основу взят реактивный самолет, снабженный усовершенствованными турбинами, форсированным двигателем и современной системой герметизацией.
Экипажем, совершающим первый в истории человечества прорыв во внеземное пространство, руководит Майкл Хейдон. Восторг по поводу предстоящего полета не разделяет энергичная журналистка Ким Хэммилтон. Она спрашивает организаторов «за чей счет этот банкет?», и какой смысл в подобных затратных мероприятиях. Тем не менее, именно она под покровом ночи залезет на охраняемый объект и затаится в трюме космического корабля. А в это время члены экипажа пытаются решить свои личные дела. У всех какие-то проблемы в семье, недопонимание с женами и подругами. К тому же за несколько часов перед стартом им открывают тайну государственного масштаба: на самом деле научная цель экспедиции всего лишь фикция.

Релиз

Качество: DVDRip-AVC
Формат: MKV
Видео: x264, 1364 кбит/с, 712x360@841x360, 23,976 к/с, crf=18
Аудио 1: Русский ЛО (den904) (AC3, 1 ch, 192 Кбит/с)
Аудио 2: Английский (AC3, 2 ch, 192 Кбит/с)
Субтитры : Русские (Lisok), английские, французские)


Пример русского перевода

Релиз

Рип с ДВД9 - sasha20072007, качество - crf=18
Русские субтитры и перевод - Оля Lisok
Русская озвучка по заказу kosmoaelita.com - den904

Дополнительно

слоган «Astonishing Life on the Roof of the Earth!»
Also Known As (AKA)
La terra esplode Italy
Les premiers passagers du satellite France
Räjähdys avaruudessa Finland
Satélite no Céu Portugal (imdb display title)

MediaInfo

Общее
Уникальный идентификатор : 213198282433306714448209806694636271668 (0xA0647EE126840C338DC7777CF48B3834)
Полное имя : Satellite in the Sky 1956.x264.DVDRip.AVC.Rus.kosmoaelita.mkv
Формат : Matroska
Версия формата : Version 4 / Version 2
Размер файла : 1,05 Гбайт
Продолжительность : 1 ч. 24 м.
Общий поток : 1779 Кбит/сек
Название фильма : Satellite in the Sky / Солнечный спутник / 1956 / rip by sasha20072007 (2012-10-06)
Дата кодирования : UTC 2013-07-24 16:50:57
Программа кодирования : mkvmerge v6.3.0 ('You can't stop me!') built on Jun 28 2013 20:09:41
Библиотека кодирования : libebml v1.3.0 + libmatroska v1.4.0
Attachments : kinopoisk_ru-Satellite-in-the-Sky-826997.jpg / kinopoisk_ru-Satellite-in-the-Sky-1372642--o--.jpg / kinopoisk_ru-Satellite-in-the-Sky-826996.jpg
Видео
Идентификатор : 1
Формат : AVC
Формат/Информация : Advanced Video Codec
Профиль формата : High@L4.1
Параметр CABAC формата : Да
Параметр ReFrames формата : 8 кадров
Идентификатор кодека : V_MPEG4/ISO/AVC
Продолжительность : 1 ч. 24 м.
Битрейт : 1360 Кбит/сек
Ширина : 712 пикселей
Высота : 360 пикселей
Соотношение сторон : 2,35:1
Соотношение сторон в оригинале : 2,35:1
Режим частоты кадров : Постоянный
Частота кадров : 23,976 (24000/1001) кадра/сек
Цветовое пространство : YUV
Субдискретизация насыщенности : 4:2:0
Битовая глубина : 8 бит
Тип развёртки : Прогрессивная
Бит/(Пиксели*Кадры) : 0.221
Размер потока : 821 Мбайт (76%)
Библиотека кодирования : x264 core 125 r2208 d9d2288
Настройки программы : cabac=1 / ref=8 / deblock=1:-2:-1 / analyse=0x3:0x133 / me=umh / subme=10 / psy=1 / psy_rd=1.00:0.17 / mixed_ref=1 / me_range=24 / chroma_me=1 / trellis=2 / 8x8dct=1 / cqm=0 / deadzone=21,11 / fast_pskip=1 / chroma_qp_offset=-3 / threads=4 / lookahead_threads=1 / sliced_threads=0 / nr=0 / decimate=1 / interlaced=0 / bluray_compat=0 / constrained_intra=0 / bframes=8 / b_pyramid=2 / b_adapt=2 / b_bias=0 / direct=1 / weightb=1 / open_gop=0 / weightp=2 / keyint=220 / keyint_min=22 / scenecut=40 / intra_refresh=0 / rc_lookahead=60 / rc=crf / mbtree=1 / crf=18.0 / qcomp=0.60 / qpmin=0 / qpmax=69 / qpstep=4 / vbv_maxrate=17500 / vbv_bufsize=14000 / crf_max=0.0 / nal_hrd=none / ip_ratio=1.27 / aq=1:0.80
Default : Да
Forced : Нет
Аудио #1
Идентификатор : 2
Формат : AC-3
Формат/Информация : Audio Coding 3
Расширение режима : CM (complete main)
Параметр Endianness формата : Big
Идентификатор кодека : A_AC3
Продолжительность : 1 ч. 24 м.
Вид битрейта : Постоянный
Битрейт : 192 Кбит/сек
Каналы : 1 канал
Расположение каналов : Front: C
Частота : 48,0 КГц
Частота кадров : 31,250 кадров/сек (1536 spf)
Метод сжатия : С потерями
Размер потока : 116 Мбайт (11%)
Заголовок : Русский ЛО (den904 для kosmoaelita.com)
Язык : Russian
Default : Да
Forced : Нет
Аудио #2
Идентификатор : 3
Формат : AC-3
Формат/Информация : Audio Coding 3
Расширение режима : CM (complete main)
Параметр Endianness формата : Big
Идентификатор кодека : A_AC3
Продолжительность : 1 ч. 24 м.
Вид битрейта : Постоянный
Битрейт : 192 Кбит/сек
Каналы : 1 канал
Расположение каналов : Front: C
Частота : 48,0 КГц
Частота кадров : 31,250 кадров/сек (1536 spf)
Метод сжатия : С потерями
Задержка видео : 7 мс.
Размер потока : 116 Мбайт (11%)
Язык : English
Default : Нет
Forced : Нет
Текст #1
Идентификатор : 4
Формат : VobSub
Идентификатор кодека : S_VOBSUB
Идентификатор кодека/Информация : Picture based subtitle format used on DVDs
Заголовок : Русский (Lisok) VobSub
Язык : Russian
Default : Да
Forced : Нет
Текст #2
Идентификатор : 5
Формат : UTF-8
Идентификатор кодека : S_TEXT/UTF8
Идентификатор кодека/Информация : UTF-8 Plain Text
Заголовок : Русский (Lisok) srt
Язык : Russian
Default : Нет
Forced : Нет
Текст #3
Идентификатор : 6
Формат : VobSub
Идентификатор кодека : S_VOBSUB
Идентификатор кодека/Информация : Picture based subtitle format used on DVDs
Язык : English
Default : Нет
Forced : Нет
Текст #4
Идентификатор : 7
Формат : VobSub
Идентификатор кодека : S_VOBSUB
Идентификатор кодека/Информация : Picture based subtitle format used on DVDs
Язык : French
Default : Нет
Forced : Нет
Меню
00:00:00.000 : :Chapter 01
00:10:05.300 : :Chapter 02
00:20:00.967 : :Chapter 03
00:29:55.134 : :Chapter 04
00:36:49.968 : :Chapter 05
00:47:20.135 : :Chapter 06
01:02:32.168 : :Chapter 07
01:09:57.335 : :Chapter 08

Пример субтитров

2
00:00:03,540 --> 00:00:07,450
И человек, покорив землю,
поднимется в небеса,
3
00:00:09,980 --> 00:00:12,610
чтобы достать до звёзд.
4
00:00:12,790 --> 00:00:18,880
26 февраля 1554 года.
НОСТРАДАМУС.
5
00:00:31,560 --> 00:00:35,020
СОЛНЕЧНЫЙ СПУТНИК
(Satellite in the Sky, 1956г)
6
00:02:08,000 --> 00:02:10,600
- Здравствуйте, сэр.
-Здравствуй, Боб.
7
00:02:20,450 --> 00:02:21,780
Вроде, всё в порядке, Лефти.
8
00:02:21,950 --> 00:02:24,440
Это 23-й тест с новым топливом.
9
00:02:24,620 --> 00:02:25,740
Перегрева нет?
10
00:02:25,920 --> 00:02:28,320
- Больше нет. Это всё, Боб.
- Всё кончилось.
11
00:02:28,490 --> 00:02:30,390
- Проблемы с зажиганием?
- Нет.
12
00:02:30,560 --> 00:02:32,080
Ты хочешь сказать,
что теперь всё отлично?
13
00:02:32,260 --> 00:02:35,490
Я так никогда не говорю.
Узнаем во второй половине дня.
14
00:02:35,660 --> 00:02:37,250
- Похоже на самолёт Майка.
- Да.
15
00:03:00,350 --> 00:03:02,340
- Пойдём, расскажем ему.
- Хорошо.
16
00:04:22,400 --> 00:04:25,130
- Скажите Ларри, чтоб он нашёл меня в раздевалке.
- Хорошо.
17
00:04:37,080 --> 00:04:39,880
Присаживайтесь, дамы и господа.
18
00:04:41,290 --> 00:04:42,880
- Доброе утро, сэр.
- Доброе утро.
19
00:04:43,060 --> 00:04:44,990
- Теперь всё готово.
- Прекрасно.
20
00:04:48,160 --> 00:04:52,060
Мы ответим на все вопросы, если они
не нарушают правил безопасности.

Скриншоты



Скринлист

Файл дополнительно залит на ОБЛАКО
[Profile] [PM]

Guest

Gender: Unknown

Post 24-Jul-2013 20:05 (after 9 months 17 days)

[Quote]

Добавлена озвучка от den904
 

Dionisiy22

Gender: Unknown

Longevity: 1 year 9 months

Posts: 54

Post 25-Jan-2019 22:44 (after 5 years 6 months)

[Quote]

Большая просьба помочь скачать фильм
[Profile] [PM]

Guest

Gender: Unknown

Longevity: 49 years

Post 26-Jan-2019 01:31 (after 2 hours 47 minutes)

[Quote]

На ОБЛАКЕ
[Profile] [PM]
Quick Reply

Name:

            
Heads necessary to send messages to enable JavaScript
Display posts:    
Reply to topic

Current time is: 17-Nov 18:27

All times are UTC + 3



You cannot post new topics in this forum
You can reply to topics in this forum
You cannot edit your posts in this forum
You cannot delete your posts in this forum
You cannot vote in polls in this forum
You cannot attach files in this forum
You cannot download files in this forum