Компьютерные воины: приключения начинаются / Computer Warriors: The Adventure Begins (Билл Кройер) [1990, США, фантастика, VHSRip] [пилотная серия] (АО : Трамвай фильм)

Reply to topic
DL-List and Torrent activity
Size:  84 MB   |    Registered:  1 year 6 months   |    Completed:  0 times

Seeders:

Username ULR UL DL UL speed DL speed
Трамвай-фильм ® 0 0- 0- 0- 0-
shows data only for the current session
 
   
 
 
 
Author Message

Трамвай-фильм ®

Gender: Male

Longevity: 4 years 9 months

Posts: 1454

Location: Россия

Post 05-Nov-2017 13:27

[Quote]

Компьютерные воины: приключения начинаются / Computer Warriors: The Adventure Begins / пилотная серия
Страна: США
Жанр: фантастика
Год выпуска: 1990
Продолжительность: 00:22:08
Перевод: Авторский (одноголосый) Трамвай фильм
Режиссер: Билл Кройер
Описание: Злые вирусы атакуют компьютеры по всему миру, а компьютерные воины созданы что бы их остановить, битва между ними выходит в реальный мир, где они преобразуют предметы домашнего обихода в смертоносные боевые машины!
Доп. информация: Это пилотная серия мультсериала, который так и не был выпущен. Такого рода мультфильмы был нормой для раскрутки продаж игрушек, в данном случае предполагалось раскрутить продажи одноименных игрушек от фирмы "Мателль", кассета шла в комплекте к некоторым игрушкам. На кассете так же записаны 2 рекламных ролика от производителя, демонстрирующие сами игрушки в реальности.
Для своего времени в мультфильме довольно таки хорошая компьютерная графика, и увлекательный сюжет, для детей США конца 1980-х, начала 1990-х, когда домашние компьютеры начали массово появляться у населения.
Качество видео: VHSRip
Формат видео: MKV
Видео: MPEG4 Video (H264) 480x360 29.97fps, 320 кб/с
Аудио: AAC, 2 ch, 128 kb/s (русс.)
Аудио 2: AAC, 2 ch, 128 kb/s (англ.)Мультфиль залит на внешний хостинг

MediaInfo

Format : Matroska
Format version : Version 4 / Version 2
File size : 83.7 MiB
Duration : 22 min 7 s
Overall bit rate : 529 kb/s
Encoded date : UTC 2017-10-29 16:55:32
Writing application : mkvmerge v7.1.0 ('Good Love') 32bit built on Jul 27 2014 12:59:18
Writing library : libebml v1.3.0 + libmatroska v1.4.1
Video
ID : 1
Format : AVC
Format/Info : Advanced Video Codec
Format profile : Baseline@L3
Format settings, CABAC : No
Format settings, ReFrames : 1 frame
Codec ID : V_MPEG4/ISO/AVC
Duration : 22 min 7 s
Bit rate : 302 kb/s
Width : 480 pixels
Height : 360 pixels
Display aspect ratio : 4:3
Frame rate mode : Constant
Frame rate : 29.970 (30000/1001) FPS
Color space : YUV
Chroma subsampling : 4:2:0
Bit depth : 8 bits
Scan type : Progressive
Bits/(Pixel*Frame) : 0.058
Stream size : 47.8 MiB (57%)
Default : Yes
Forced : No
Audio #1
ID : 2
Format : AAC
Format/Info : Advanced Audio Codec
Format profile : LC
Codec ID : A_AAC
Duration : 22 min 7 s
Bit rate : 128 kb/s
Channel(s) : 2 channels
Channel positions : Front: L R
Sampling rate : 44.1 kHz
Frame rate : 43.066 FPS (1024 spf)
Compression mode : Lossy
Stream size : 20.3 MiB (24%)
Language : Russian
Default : Yes
Forced : No
Audio #2
ID : 3
Format : AAC
Format/Info : Advanced Audio Codec
Format profile : LC
Codec ID : A_AAC
Duration : 22 min 7 s
Bit rate : 96.0 kb/s
Channel(s) : 2 channels
Channel positions : Front: L R
Sampling rate : 44.1 kHz
Frame rate : 43.066 FPS (1024 spf)
Compression mode : Lossy
Stream size : 15.2 MiB (18%)
Language : English
Default : No
Forced : No

Скриншоты







Computer-Warriors..torrent
Torrent: Registered [ 2017-11-05 13:27 ]

Download .torrent

Download

13 KB

Status: checked
Completed: 0 times
Size: 84 MB
 
[Profile] [PM]
Quick Reply

Name:

            
Heads necessary to send messages to enable JavaScript
Display posts:    
Reply to topic

Current time is: 26-May 22:36

All times are UTC + 3



You can post new topics in this forum
You can reply to topics in this forum
You can edit your posts in this forum
You cannot delete your posts in this forum
You cannot vote in polls in this forum
You can attach files in this forum
You can download files in this forum