Макс Хелл - Воин-Лягушка / Max Hell Frog Warrior / Max Hell Comes to Frogtown (Donald G. Jackson) [2002, США, Фантастика, VHSRip] ПО (den904), СТ (karlivanovich)

Ответить на тему
 
Автор Сообщение

den904 ®

Пол: Мужской

Стаж: 5 лет 4 месяца

Сообщений: 185

Создавать темы 03-Ноя-2017 10:32

[Цитировать]

Макс Хелл - Воин-Лягушка / Max Hell Frog Warrior / Max Hell Comes to Frogtown
Страна: США
Жанр: Фантастика, фэнтези
Год выпуска: 2002
Продолжительность: 01:08:04
Перевод: ЛО den904 по субтитрам от (kosmoaelita-karlivanovich)
Спонсор озвучки: Андрей Берг
Режиссер: Donald G. Jackson
В ролях: Max Hell
Joe Estevez Joe Estevez ...Mickey O'Malley
Conrad Brooks Conrad Brooks ...Swamp Farmer
Jill Kelly Jill Kelly ...Agent Glory
Roger Ellis Roger Ellis ...Overlord Wartoad
Sandra Purpuro Sandra Purpuro ...Cricket
Kent Dalian Kent Dalian ...Sergeant Shiva
Camille Solari Camille Solari ...Agent Banner
Elizabeth Mehr Elizabeth Mehr ...Dr. Trixi T.
Robin Kimberly Robin Kimberly ...Agent Spangle
Описание: Max Hell Frog Warrior is a 2002 martial arts based cult film that was written, produced, and directed by Donald G. Jackson and Scott Shaw.
This film is the fourth in the Hell Comes to Frogtown quadrilogy that includes the cult films Hell Comes to Frogtown, Return to Frogtown, Toad Warrior and this film, Max Hell Frog Warrior.
The story for Max Hell Frog Warrior was conceived by Donald G. Jackson. The film stars Scott Shaw, Joe Estevez, Conrad Brooks, and Jill Kelly.
This film follows the lead character, Max Hell, played by Scott Shaw, who goes on a mission to rescue Dr. Trixi T from the clutches of the evil Mickey O'Malley, played by Joe Estevez.
According to the filmmakers in an interview in the magazine, Independent Film & Video Monthly, Max Hell Frog Warrior is not so much a sequel as it was inspired by the original concept for the film Hell Comes to Frogtown formulated by Donald G. Jackson in 1986.
This film is considered a Zen Film in that it was created in the distinct style of filmmaking formulated by Scott Shaw known as Zen Filmmaking. In this style of filmmaking no scripts are used.
Релиз

Качество: VHSRip
Формат: MKV
Видео: xviD, 1248 кбит/с, 640x480, 23.976 к/с
Аудио 1: Русский (AC3, 2 ch, 192 Кбит/с)
Аудио 2: Английский (MP3, 2 ch, 128 Кбит/с)
Субтитры : Русские ()
Работа над релизом:
Видеоряд найден на синемагеддоне
00:30:59 - 00:31:47 дефекты видео и звука


MediaInfo

Общее
Уникальный идентификатор : 193384552940361469513052477949426262892 (0x917C8297D00D9C099CE63FD3F19BE36C)
Полное имя : F:\Max Hell Frog Warrior 2002.XviD.VHSRip.Rus.kosmoaelita.mkv
Формат : Matroska
Версия формата : Version 4 / Version 2
Размер файла : 785 Мбайт
Продолжительность : 1 ч. 8 м.
Общий поток : 1599 Кбит/сек
Название фильма : Max Hell Frog Warrior / 2002 / Релиз www.kosmoaelita.com
Дата кодирования : UTC 2017-11-03 17:01:16
Программа кодирования : mkvmerge v6.6.0 ('The Edge Of The In Between') built on Dec 1 2013 17:55:00
Библиотека кодирования : libebml v1.3.0 + libmatroska v1.4.1
Attachments : poster.jpg
Видео
Идентификатор : 1
Формат : MPEG-4 Visual
Профиль формата : Advanced Simple@L5
Параметр BVOP формата : 2
Параметр QPel формата : Нет
Параметр GMC формата : Без точки перехода
Параметр матрицы формата : Default (H.263)
Режим смешивания : Сжатый битовый поток
Идентификатор кодека : V_MS/VFW/FOURCC / XVID
Идентификатор кодека/Подсказка : XviD
Продолжительность : 1 ч. 8 м.
Битрейт : 1247 Кбит/сек
Ширина : 640 пикселей
Высота : 480 пикселей
Соотношение сторон : 4:3
Режим частоты кадров : Постоянный
Частота кадров : 23,976 (23976/1000) кадра/сек
Цветовое пространство : YUV
Субдискретизация насыщенности : 4:2:0
Битовая глубина : 8 бит
Тип развёртки : Прогрессивная
Метод сжатия : С потерями
Бит/(Пиксели*Кадры) : 0.169
Размер потока : 613 Мбайт (78%)
Заголовок : kosmoaelita
Библиотека кодирования : XviD 1.2.1 (UTC 2008-12-04)
Default : Да
Forced : Нет
Аудио #1
Идентификатор : 2
Формат : AC-3
Формат/Информация : Audio Coding 3
Расширение режима : CM (complete main)
Параметр Endianness формата : Big
Идентификатор кодека : A_AC3
Продолжительность : 1 ч. 8 м.
Вид битрейта : Постоянный
Битрейт : 192 Кбит/сек
Каналы : 2 канала
Расположение каналов : Front: L R
Частота : 48,0 КГц
Частота кадров : 31,250 кадров/сек (1536 spf)
Метод сжатия : С потерями
Размер потока : 94,3 Мбайт (12%)
Заголовок : Русский ЛО (den904 для kosmoaelita.com) - поддержка А.Берг
Язык : Russian
Default : Да
Forced : Нет
Аудио #2
Идентификатор : 3
Формат : MPEG Audio
Версия формата : Version 1
Профиль формата : Layer 3
Режим : Joint stereo
Расширение режима : MS Stereo
Идентификатор кодека : A_MPEG/L3
Идентификатор кодека/Подсказка : MP3
Продолжительность : 1 ч. 8 м.
Вид битрейта : Постоянный
Битрейт : 128 Кбит/сек
Каналы : 2 канала
Частота : 44,1 КГц
Метод сжатия : С потерями
Размер потока : 62,9 Мбайт (8%)
Библиотека кодирования : LAME3.97
Настройки программы : -m j -V 4 -q 3 -lowpass 17 -b 128
Язык : English
Default : Нет
Forced : Нет

Скриншоты






Скринлист

[Профиль] [ЛС]
Быстрый ответ

Имя:

            
Для отправки сообщений необходимо включить JavaScript
Показать сообщения:    
Ответить на тему

Текущее время: 20-Окт 12:56

Часовой пояс: UTC + 3:30



Вы не можете начинать темы
Вы можете отвечать на сообщения
Вы не можете редактировать свои сообщения
Вы не можете удалять свои сообщения
Вы не можете голосовать в опросах
Вы не можете прикреплять файлы к сообщениям
Вы не можете скачивать файлы