Поле разума / Мозговой полигон / Mindfield (Жан-Клод Лорд / Jean-Claude Lord) [1989, Канада, Фантастика. триллер, WEBDL-1080p] (АО : Константин Дьяконов) (АО : Антон Алексеев)

Reply to topic
DL-List and Torrent activity
Size:  3.37 GB   |    Registered:  4 years   |    Completed:  0 times

Seeder not seen: 2 years 6 months

 
   
 
 
 
Author Message

Guest

Gender: Unknown

Longevity: 51 year

Post 15-Oct-2017 16:53

[Quote]

Поле разума / Мозговой полигон / Mindfield
Страна: Канада, Allegro Film Productions Inc., CFCF-TV, Cinegems International
Жанр: Фантастика. триллер
Год выпуска: 1989
Продолжительность: 01:30:10
Перевод 1: Авторский (одноголосый) Константин Дьяконов
Перевод 2: Авторский (одноголосый) Антон Алексеев
Режиссер: Жан-Клод Лорд / Jean-Claude Lord
В ролях: Michael Ironside ... Kellen O'Reilly
Lisa Langlois Lisa Langlois ... Sarah Paradis
Christopher Plummer Christopher Plummer ... Doctor Satorius
Stefan Wodoslawsky Stefan Wodoslawsky ... Raolo Basutti
Sean McCann Sean McCann ... Rudy
Robert Morelli Robert Morelli ... Juley 'The Juice'
George Sperdakos George Sperdakos ... Leo Sloukos
Claire Rodger Claire Rodger ... Margot
Eugene Clark Eugene Clark ... Hugh McVeigh
James Bearden James Bearden ... Eddie
Harvey Atkin Harvey Atkin ... Bob Champlain
Howard Jerome Howard Jerome ... Johnny Ronce
Tom Rack Tom Rack ... Mick
Ken Roberts Ken Roberts ... Alabama Bill (as Kenneth W. Roberts)
Michael McGill Michael McGill ... Bennie
Описание: Одной из заветных целей ЦРУ было найти способ вызвать у людей потерю памяти. Они хотели найти возможность стирать память как у своих собственных агентов после выполнения заданий, так и у рассекреченных шпионов. Свое желание они исполнили...
Качество: WEBDL-1080p
Формат: MKV
Видео: x264, 4200 кбит/с, 1920x1028, 23.976 к/с
Аудио 1: Русский АО (Константин Дьяконов) с VHS (AC3, 2 ch, 192 Кбит/с)
Аудио 2: Русский АО (Антон Алексеев) с VHS (AC3, 2 ch, 192 Кбит/с)
Аудио 3: Английский (AC3, 2 ch, 192 Кбит/с)
Аудио 4: Французский (AC3, 2 ch, 192 Кбит/с)
Работа над релизом:
Видеоряд найден на синемагеддоне
VHSRip vs. WEBDL-1080p


Дополнительно

слоган «The War is on for Brain Control!»
Also Known As (AKA)
Bulgaria (Bulgarian title) Мозъчни експерименти
Brazil Lavagem Cerebral - Uma Experiência da CIA
Canada (French title) (video box title) La mémoire assassinée
Spain Campo de espinas
Spain (DVD title) Mente salvaje
Finland Colt puhukoon puolestani
Finland (video box title) Mindfield
Italy Vuoto mentale
USA (video title) Mind Field

Знаете ли вы, что...

Основой для фильма послужили факты из опубликованной в 1977 году статьи в «The New York Times». В ней подробно рассказывалось о скандале, разразившегося в Монреале в связи с разоблачением тайной операции ЦРУ по «промывке мозгов» своим бывшим сотрудникам, многое знавшим о деятельности организации.

Отзывы

Спасибо раздающему. Если не ошибаюсь, этот фильм вышел следом за "Вспомнить Всё" с Арнольдом Шварценеггером. Две личности в одном мозгу. "Ты то, что ты делаешь".

MediaInfo

Общее
Уникальный идентификатор : 243569890965517500658640541854185844205 (0xB73DDACABF0AED74A10660F06F0C6DED)
Полное имя : F:\Mindfield 1989.x264.WEBDL.1080p.2xRus.kosmoaelita.mkv
Формат : Matroska
Версия формата : Version 4 / Version 2
Размер файла : 3,37 Гбайт
Продолжительность : 1 ч. 31 м.
Общий поток : 5303 Кбит/сек
Название фильма : Mindfield 1989 / kosmoaelita.com
Дата кодирования : UTC 2017-10-15 10:00:00
Программа кодирования : mkvmerge v6.6.0 ('The Edge Of The In Between') built on Dec 1 2013 17:55:00
Библиотека кодирования : libebml v1.3.0 + libmatroska v1.4.1
Attachments : poster1.jpg
Видео
Идентификатор : 1
Формат : AVC
Формат/Информация : Advanced Video Codec
Профиль формата : High@L4
Параметр CABAC формата : Да
Параметр ReFrames формата : 4 кадра
Идентификатор кодека : V_MPEG4/ISO/AVC
Продолжительность : 1 ч. 31 м.
Ширина : 1900 пикселей
Высота : 1028 пикселей
Соотношение сторон : 1,85:1
Режим частоты кадров : Постоянный
Частота кадров : 25,000 кадров/сек
Цветовое пространство : YUV
Субдискретизация насыщенности : 4:2:0
Битовая глубина : 8 бит
Тип развёртки : Прогрессивная
Заголовок : kosmoaelita
Default : Да
Forced : Нет
Цветовой диапазон : Limited
Основные цвета : BT.709
Характеристики трансфера : BT.709
Коэффициенты матрицы : BT.709
Аудио #1
Идентификатор : 2
Формат : AC-3
Формат/Информация : Audio Coding 3
Расширение режима : CM (complete main)
Параметр Endianness формата : Big
Идентификатор кодека : A_AC3
Продолжительность : 1 ч. 31 м.
Вид битрейта : Постоянный
Битрейт : 192 Кбит/сек
Каналы : 2 канала
Расположение каналов : Front: L R
Частота : 48,0 КГц
Частота кадров : 31,250 кадров/сек (1536 spf)
Метод сжатия : С потерями
Размер потока : 125 Мбайт (4%)
Заголовок : Русский АО (Константин Дьяконов) с VHS
Язык : Russian
Default : Да
Forced : Нет
Аудио #2
Идентификатор : 3
Формат : AC-3
Формат/Информация : Audio Coding 3
Расширение режима : CM (complete main)
Параметр Endianness формата : Big
Идентификатор кодека : A_AC3
Продолжительность : 1 ч. 31 м.
Вид битрейта : Постоянный
Битрейт : 192 Кбит/сек
Каналы : 2 канала
Расположение каналов : Front: L R
Частота : 48,0 КГц
Частота кадров : 31,250 кадров/сек (1536 spf)
Метод сжатия : С потерями
Размер потока : 125 Мбайт (4%)
Заголовок : Русский АО (Антон Алексеев) с VHS
Язык : Russian
Default : Нет
Forced : Нет
Аудио #3
Идентификатор : 4
Формат : AAC
Формат/Информация : Advanced Audio Codec
Профиль формата : LC
Идентификатор кодека : A_AAC
Продолжительность : 1 ч. 31 м.
Каналы : 2 канала
Расположение каналов : Front: L R
Частота : 48,0 КГц
Частота кадров : 46,875 кадров/сек (1024 spf)
Метод сжатия : С потерями
Язык : English
Default : Нет
Forced : Нет
Аудио #4
Идентификатор : 5
Формат : AAC
Формат/Информация : Advanced Audio Codec
Профиль формата : LC
Идентификатор кодека : A_AAC
Продолжительность : 1 ч. 31 м.
Каналы : 2 канала
Расположение каналов : Front: L R
Частота : 48,0 КГц
Частота кадров : 46,875 кадров/сек (1024 spf)
Метод сжатия : С потерями
Язык : French
Default : Нет
Forced : Нет
Текст
Идентификатор : 6
Формат : UTF-8
Идентификатор кодека : S_TEXT/UTF8
Идентификатор кодека/Информация : UTF-8 Plain Text
Default : Да
Forced : Нет
Меню
00:00:00.000 : en:Chapter 1
00:08:35.000 : en:Chapter 2
00:17:04.000 : en:Chapter 3
00:26:31.000 : en:Chapter 4
00:35:01.000 : en:Chapter 5
00:43:37.000 : en:Chapter 6
00:51:55.000 : en:Chapter 7
01:01:14.000 : en:Chapter 8
01:09:37.000 : en:Chapter 9
01:17:47.000 : en:Chapter 10
01:27:43.000 : en:Chapter 11

Скриншоты










Скринлист

cd Рип дополнительно залит на ОБЛАКО cd2
Mindfield 1989.x264.WEBDL.1080p.2xRus.kosmoaelita.mkv.torrent
Torrent: Registered [ 2017-10-17 02:29 ]

Download .torrent

Download

68 KB

Status: * not checked
Completed: 0 times
Size: 3.37 GB
 
[Profile] [PM]
Display posts:    
Reply to topic

Current time is: 24-Oct 12:14

All times are UTC + 3



You cannot post new topics in this forum
You cannot reply to topics in this forum
You cannot edit your posts in this forum
You cannot delete your posts in this forum
You cannot vote in polls in this forum
You cannot attach files in this forum
You can download files in this forum