Последняя надежда / Def-Con 4 (Пол Донован / Paul Donovan) [1985, Канада, Фантастика, Боевик, Постапокалипсис, BDRip-720p] (АО : Антон Алексеев) (АО : Александр Дольский), ЛО (А.Бессонов), СТ ()

Reply to topic
DL-List and Torrent activity
Size:  3.82 GB   |    Registered:  3 years 2 months   |    Completed:  1 time

Seeder not seen: 2 years 1 month

 
   
 
 
 
Author Message

AlexNT60 ®

Gender: Male

Longevity: 7 years 10 months

Posts: 137

Location: СПб

Post 28-Sep-2017 13:24

[Quote]

Последняя надежда / Def-Con 4
Страна: Канада
Жанр: Фантастика, Боевик, Постапокалипсис
Год выпуска: 1985
Продолжительность: 01:27:53
Перевод 1: Авторский (одноголосый) Антон Алексеев
Перевод 2: Авторский (одноголосый) Александр Дольский
Перевод 2: Любительский (одноголосый) Андрей Бессонов по субтитрам от steelhawke
Режиссер: Пол Донован / Paul Donovan
В ролях: Ленор Занн, Мори Чайкин, Кейт Линч, Кевин Кинг, Джон Уолш, Тим Чоут, Джефф Пастил, Донна Кинг, Карен Кеннеди
Описание: Двое мужчин и женщина — экипаж космической станции, вооруженной ядерным оружием. На Земле вспыхивает Третья Мировая война, а несколько месяцев спустя происходит авария на орбитальной станции и астронавтам приходится вернуться на Землю. После жесткой посадки члены экипажа выживают, но одного из мужчин убивают выжившие в войне люди-каннибалы, а другого берёт в плен местный главарь банды. Женщина после посадки была без сознания среди их разбившегося корабля, но вскоре и её ловят бандиты. И в таких условиях астронавты пытаются выжить.
Качество видео: BDRip-720p
Формат видео: MKV
Видео: x264, 5038 кбит/с, 1280x720, 23.976 к/с
Аудио 1: Русский AVO (А.Алексеев) (AC3, 2 ch, 192 Кбит/с)
Аудио 2: Русский AVO (А.Дольский) (AC3, 2 ch, 192 Кбит/с)
Аудио 3: Русский ЛО (А.Бессонов) (AC3, 2 ch, 192 Кбит/с)
Аудио 4: Английский (AC3, 5.1 ch, 448 Кбит/с)
Аудио 5: Немецкий (AC3, 2 ch, 224 Кбит/с)

MediaInfo

Общее
Уникальный идентификатор : 186131725232645482952563413371458457836 (0x8C07AA941E338737A739BA2BB59C90EC)
Полное имя : N:\BD-DISC\Def-Con_4_1_1985_Rus\Def-Con 4 1985.x264.BDRip.720p.3xRus.kosmoaelita.mkv
Формат : Matroska
Версия формата : Version 4 / Version 2
Размер файла : 3,93 Гбайт
Продолжительность : 1 ч. 27 м.
Общий поток : 6410 Кбит/сек
Название фильма : Def-Con 4 (1985)
Дата кодирования : UTC 2017-10-02 22:16:26
Программа кодирования : mkvmerge v6.6.0 ('The Edge Of The In Between') built on Dec 1 2013 17:55:00
Библиотека кодирования : libebml v1.3.0 + libmatroska v1.4.1
Обложка : Yes
Attachments : Cover.png
Видео
Идентификатор : 1
Формат : AVC
Формат/Информация : Advanced Video Codec
Профиль формата : High@L4.1
Параметр CABAC формата : Да
Параметр ReFrames формата : 4 кадра
Идентификатор кодека : V_MPEG4/ISO/AVC
Продолжительность : 1 ч. 27 м.
Битрейт : 5035 Кбит/сек
Ширина : 1280 пикселей
Высота : 702 пикселя
Соотношение сторон : 1,85:1
Режим частоты кадров : Постоянный
Частота кадров : 25,000 кадров/сек
Цветовое пространство : YUV
Субдискретизация насыщенности : 4:2:0
Битовая глубина : 8 бит
Тип развёртки : Прогрессивная
Бит/(Пиксели*Кадры) : 0.224
Размер потока : 3,09 Гбайт (79%)
Заголовок : kosmoaelita
Библиотека кодирования : x264 core 148 r2744 b97ae06
Настройки программы : cabac=1 / ref=5 / deblock=1:-1:-1 / analyse=0x3:0x113 / me=umh / subme=7 / psy=1 / psy_rd=1.00:0.15 / mixed_ref=1 / me_range=16 / chroma_me=1 / trellis=2 / 8x8dct=1 / cqm=0 / deadzone=21,11 / fast_pskip=1 / chroma_qp_offset=-3 / threads=22 / lookahead_threads=3 / sliced_threads=0 / nr=0 / decimate=1 / interlaced=0 / bluray_compat=0 / constrained_intra=0 / bframes=3 / b_pyramid=1 / b_adapt=1 / b_bias=0 / direct=3 / weightb=1 / open_gop=0 / weightp=2 / keyint=250 / keyint_min=25 / scenecut=40 / intra_refresh=0 / rc_lookahead=50 / rc=crf / mbtree=1 / crf=18.0 / qcomp=0.60 / qpmin=0 / qpmax=69 / qpstep=4 / ip_ratio=1.40 / aq=1:1.00
Default : Да
Forced : Нет
Аудио #1
Идентификатор : 2
Формат : AC-3
Формат/Информация : Audio Coding 3
Расширение режима : CM (complete main)
Параметр Endianness формата : Big
Идентификатор кодека : A_AC3
Продолжительность : 1 ч. 27 м.
Вид битрейта : Постоянный
Битрейт : 192 Кбит/сек
Каналы : 2 канала
Расположение каналов : Front: L R
Частота : 48,0 КГц
Частота кадров : 31,250 кадров/сек (1536 spf)
Метод сжатия : С потерями
Размер потока : 121 Мбайт (3%)
Заголовок : Русский АО (А.Алексеев)
Язык : Russian
Default : Да
Forced : Нет
Аудио #2
Идентификатор : 3
Формат : AC-3
Формат/Информация : Audio Coding 3
Расширение режима : CM (complete main)
Параметр Endianness формата : Big
Идентификатор кодека : A_AC3
Продолжительность : 1 ч. 27 м.
Вид битрейта : Постоянный
Битрейт : 192 Кбит/сек
Каналы : 2 канала
Расположение каналов : Front: L R
Частота : 48,0 КГц
Частота кадров : 31,250 кадров/сек (1536 spf)
Метод сжатия : С потерями
Размер потока : 121 Мбайт (3%)
Заголовок : Русский АО (А.Дольский) (с VHS)
Язык : Russian
Default : Нет
Forced : Нет
Аудио #3
Идентификатор : 4
Формат : AC-3
Формат/Информация : Audio Coding 3
Расширение режима : CM (complete main)
Параметр Endianness формата : Big
Идентификатор кодека : A_AC3
Продолжительность : 1 ч. 27 м.
Вид битрейта : Постоянный
Битрейт : 192 Кбит/сек
Каналы : 2 канала
Расположение каналов : Front: L R
Частота : 48,0 КГц
Частота кадров : 31,250 кадров/сек (1536 spf)
Метод сжатия : С потерями
Размер потока : 121 Мбайт (3%)
Заголовок : Русский ЛО (А.Бессонов) по субтитрам от steelhawke
Язык : Russian
Default : Нет
Forced : Нет
Аудио #4
Идентификатор : 5
Формат : AC-3
Формат/Информация : Audio Coding 3
Расширение режима : CM (complete main)
Параметр Endianness формата : Big
Идентификатор кодека : A_AC3
Продолжительность : 1 ч. 27 м.
Вид битрейта : Постоянный
Битрейт : 448 Кбит/сек
Каналы : 6 каналов
Расположение каналов : Front: L C R, Side: L R, LFE
Частота : 48,0 КГц
Частота кадров : 31,250 кадров/сек (1536 spf)
Метод сжатия : С потерями
Размер потока : 282 Мбайт (7%)
Язык : English
Default : Нет
Forced : Нет
Аудио #5
Идентификатор : 6
Формат : AC-3
Формат/Информация : Audio Coding 3
Расширение режима : CM (complete main)
Параметр Endianness формата : Big
Идентификатор кодека : A_AC3
Продолжительность : 1 ч. 27 м.
Вид битрейта : Постоянный
Битрейт : 224 Кбит/сек
Каналы : 2 канала
Расположение каналов : Front: L R
Частота : 48,0 КГц
Частота кадров : 31,250 кадров/сек (1536 spf)
Метод сжатия : С потерями
Размер потока : 141 Мбайт (3%)
Язык : German
Default : Нет
Forced : Нет
Текст
Идентификатор : 7
Формат : UTF-8
Идентификатор кодека : S_TEXT/UTF8
Идентификатор кодека/Информация : UTF-8 Plain Text
Заголовок : Русский (Notabenoid, steelhawke)
Язык : Russian
Default : Да
Forced : Нет
Меню
00:00:00.000 : en:00:00:00.000
00:13:12.360 : en:00:13:12.360
00:26:48.800 : en:00:26:48.800
00:40:09.400 : en:00:40:09.400
00:54:01.840 : en:00:54:01.840
01:06:57.400 : en:01:06:57.400
01:15:09.560 : en:01:15:09.560

Скриншоты





Скринлист

[/URL]
cd Рип дополнительно залит на ОБЛАКО cd2
Def.Con.4.1985.720p.BluRay.x264.mkv.torrent
Torrent: Registered [ 2017-09-28 13:24 ]

Download .torrent

Download

19 KB

Status: checked
Completed: 1 times
Size: 3.82 GB
 
[Profile] [PM]
Display posts:    
Reply to topic

Current time is: 06-Dec 00:55

All times are UTC + 3



You cannot post new topics in this forum
You cannot reply to topics in this forum
You cannot edit your posts in this forum
You cannot delete your posts in this forum
You cannot vote in polls in this forum
You cannot attach files in this forum
You can download files in this forum