После гибели: ангелы не спят / In the aftermath: angels never sleep (Карл Колпаерт / Carl Colpaert, Мамору Осии / Mamoru Oshii) [1988, Япония, Австралия, Фантастика, ПА, BDRip-720p] (ЛО)

Reply to topic
DL-List and Torrent activity
Size:  2.55 GB   |    Registered:  3 years 2 months   |    Completed:  4 times

Seeder not seen: 1 year 6 months

 
   
 
 
 
Author Message

AlexNT60 ®

Gender: Male

Longevity: 7 years 9 months

Posts: 137

Location: СПб

Post 09-Sep-2017 20:07

[Quote]

После гибели: ангелы не спят / In the aftermath: angels never sleep
Страна: Япония, Австралия
Жанр: Фантастика, ПА
Год выпуска: 1988
Продолжительность: 1:12:09
Перевод: Любительский (одноголосый)
Режиссер: Карл Колпаерт / Carl Colpaert, Мамору Осии / Mamoru Oshii
В ролях: Тони Маркес / Tony Markes, Рэйнбоу Долан / Rainbow Dolan, Кеннет Маккейб / Kenneth McCabe, Куртис Тэвис / Kurtiss J. Tews, Брайен Эленбург / Bryan Ellenburg, Эдвард Хольм / Edward Holm, Лиза Максвелл / Lisa Maxwell, Филз Туллэй / Filiz Tully
Описание: Зараженная пустыня без флоры и фауны — это планета Земля. Оставшиеся в живых после ядерной катастрофы люди скитаются в поисках воды и кислорода.
В это время из другой галактики девятилетняя девочка — ангел отправляется на помощь исчезающему человечеству. С собой она несет драгоценное яйцо, способное вернуть жизнь на Землю. Но нужны ли людям ангелы?
Доп. информация: Смешение игрового кино и анимэ.
Качество видео: BDRip-720p
Формат видео: MKV
Видео: x264, 4678 кбит/с, 1280x720, 23.976 к/с
Аудио: Русский ЛO (AC3, 2 ch, 192 Кбит/с)
Аудио 2: Английский (AC3, 2 ch, 192 Кбит/с)

MediaInfo

General
Unique ID : 191657926807237565554826477313806685911 (0x902FF95A249E1CF69B3302246AE5D6D7)
Complete name : D:\BD\123\!G\In.the.Aftermath.1988.720p.BluRay.x264.mkv
Format : Matroska
Format version : Version 4 / Version 2
File size : 2.55 GiB
Duration : 1h 12mn
Overall bit rate : 5 062 Kbps
Movie name : In the Aftermath (1988)
Encoded date : UTC 2017-08-29 18:34:42
Writing application : mkvmerge v11.0.0 ('Alive') 64bit
Writing library : libebml v1.3.4 + libmatroska v1.4.5
Attachements : Cover.png
DURATION : 01:12:09.312000000
NUMBER_OF_FRAMES : 135291
NUMBER_OF_BYTES : 103903488
_STATISTICS_WRITING_APP : mkvmerge v11.0.0 ('Alive') 64bit
_STATISTICS_WRITING_DATE_UTC : 2017-08-29 18:34:42
_STATISTICS_TAGS : BPS DURATION NUMBER_OF_FRAMES NUMBER_OF_BYTES
Video
ID : 1
Format : AVC
Format/Info : Advanced Video Codec
Format profile : High@L4.1
Format settings, CABAC : Yes
Format settings, ReFrames : 5 frames
Codec ID : V_MPEG4/ISO/AVC
Duration : 1h 12mn
Bit rate : 4 678 Kbps
Width : 1 280 pixels
Height : 720 pixels
Display aspect ratio : 16:9
Frame rate mode : Constant
Frame rate : 23.976 fps
Color space : YUV
Chroma subsampling : 4:2:0
Bit depth : 8 bits
Scan type : Progressive
Bits/(Pixel*Frame) : 0.212
Stream size : 2.31 GiB (90%)
Writing library : x264 core 152 r2851 ba24899
Encoding settings : cabac=1 / ref=5 / deblock=1:-3:-3 / analyse=0x3:0x113 / me=umh / subme=8 / psy=1 / psy_rd=1.00:0.25 / mixed_ref=1 / me_range=24 / chroma_me=1 / trellis=1 / 8x8dct=1 / cqm=0 / deadzone=21,11 / fast_pskip=1 / chroma_qp_offset=-4 / threads=22 / lookahead_threads=3 / sliced_threads=0 / nr=0 / decimate=1 / interlaced=0 / bluray_compat=0 / constrained_intra=0 / bframes=3 / b_pyramid=2 / b_adapt=1 / b_bias=0 / direct=3 / weightb=1 / open_gop=0 / weightp=2 / keyint=240 / keyint_min=24 / scenecut=40 / intra_refresh=0 / rc_lookahead=50 / rc=2pass / mbtree=1 / bitrate=4678 / ratetol=1.0 / qcomp=0.60 / qpmin=0 / qpmax=69 / qpstep=4 / cplxblur=20.0 / qblur=0.5 / ip_ratio=1.40 / aq=1:0.75
Default : Yes
Forced : No
DURATION : 01:12:09.367000000
NUMBER_OF_FRAMES : 103801
NUMBER_OF_BYTES : 2529233844
_STATISTICS_WRITING_APP : mkvmerge v11.0.0 ('Alive') 64bit
_STATISTICS_WRITING_DATE_UTC : 2017-08-29 18:34:42
_STATISTICS_TAGS : BPS DURATION NUMBER_OF_FRAMES NUMBER_OF_BYTES
Audio #1
ID : 2
Format : AC-3
Format/Info : Audio Coding 3
Mode extension : CM (complete main)
Format settings, Endianness : Big
Codec ID : A_AC3
Duration : 1h 12mn
Bit rate mode : Constant
Bit rate : 192 Kbps
Channel(s) : 2 channels
Channel positions : Front: L R
Sampling rate : 48.0 KHz
Bit depth : 16 bits
Compression mode : Lossy
Stream size : 99.1 MiB (4%)
Title : AVO
Language : Russian
Default : Yes
Forced : No
Audio #2
ID : 3
Format : AC-3
Format/Info : Audio Coding 3
Mode extension : CM (complete main)
Format settings, Endianness : Big
Codec ID : A_AC3
Duration : 1h 12mn
Bit rate mode : Constant
Bit rate : 192 Kbps
Channel(s) : 2 channels
Channel positions : Front: L R
Sampling rate : 48.0 KHz
Bit depth : 16 bits
Compression mode : Lossy
Stream size : 99.1 MiB (4%)
Language : English
Default : No
Forced : No

Скриншоты






Облако
https://cloud.mail.ru/public/Gu5a/FjMP4j1Aj
In.the.Aftermath.1988.720p.BluRay.x264.mkv.torrent
Torrent: Registered [ 2017-09-09 20:07 ]

Download .torrent

Download

13 KB

Status: checked
Completed: 4 times
Size: 2.55 GB
 
[Profile] [PM]

Guest

Gender: Unknown

Post 10-Sep-2017 07:36 (after 11 hours)

[Quote]

Если кто вытянет, то залейте на облако.
 
Display posts:    
Reply to topic

Current time is: 03-Dec 01:01

All times are UTC + 3



You cannot post new topics in this forum
You cannot reply to topics in this forum
You cannot edit your posts in this forum
You cannot delete your posts in this forum
You cannot vote in polls in this forum
You cannot attach files in this forum
You can download files in this forum