Проект Икс / Project X (Джонатан Каплан / Jonathan Kaplan) [1987 г., Фантастика, триллер, BDRip-1080p] 2 х АО (Горчаков, Визгунов)

Reply to topic
DL-List and Torrent activity
Size:  9.4 GB   |    Registered:  7 years 1 month   |    Completed:  0 times

Seeder not seen: 6 years 1 month

 
   
 
 
 
Author Message

admin ®

Gender: Male

Longevity: 7 years 2 months

Posts: 4723

Post 06-Oct-2012 21:27

[Quote]

Проект Икс / Project X
Год выпуска: 1987
Страна: США
Жанр: Фантастика, триллер
Продолжительность: 01:47:41
Перевод: Профессиональный (одноголосый) Горчаков, Визгунов
Режиссер: Джонатан Каплан / Jonathan Kaplan
В ролях: Мэттью Бродерик, Хелен Хант, Билл Сэдлер, Джонни Рэй МакГи, Джонатан Старк, Робин Гэммелл
Описание: У молодого призывника ВВС Джимми Гэррета есть повод гордиться собой: его привлекли к участию в сверхсекретном правительственном проекте. Джимми должен обучать шимпанзе летным навыкам на специальном тренажере.Но во время экспериментов Гэррет обнаруживает, что его подопечная подвергается высокому уровню радиации. Рискуя попасть под трибунал, он объединяет свои усилия с ученой Тери, научившую шимпанзе языку знаков, и начинает бороться за спасение обезьяны от неминуемой гибели…BDRip (AVC) , BDRip (1080p) Качество: BDRip-AVC
Формат: MKV
Видео: x264, 10,7 Vбит/с, 1920x1040 crf=18
Аудио 1: Русский Горчаков(AC3, 6 ch, 640 Кбит/с)
Аудио 2: Русский Визгунов(AC3, 2 ch, 192 Кбит/с)
Аудио 3: Английский (AC3, 6 ch, 640 Кбит/с)
Субтитры : Английские


Трейлер

Релиз

Рип с блю-рея - sasha20072007, crf=18
Синхронизация дорожки Визгунова с видеокассеты и обработка звука - sasha20072007
Звуковая дорожка с видеокассеты сильно "убитая", поэтому где мог, вставлял звуковое и музыкальное сопровождение с качественной английской дорожки
Дорожка Горчакова получена наложением чистого голоса на центр декодированного английского 5.1.
За чистый голос Горчакова спасибо sergey_n
Для Украины: рипы дополнительно залиты в файлохранилище
Для Украины: Оригинал BD-Remux
Для удаления и добавления дорожек в mkv используйте бесплатную mkvmerge GUI 5.80

Дополнительно

слоган «When the Air Force assigned Jimmy Garrett to a top secret project, he didn't know what he was in for. Neither did they.»
бюджет $18 000 000
Also Known As (AKA)
Project X France (imdb display title) / West Germany (video title)
Fuga dal futuro: danger zone Italy
Mystikos pilotos X Greece (transliterated ISO-LATIN-1 title)
Projecto X Portugal
Projekt X West Germany (TV title)
Projeto Secreto - Macacos Brazil
Proyecto X Spain
Salainen projekti Finland
X program Hungary (imdb display title)

Рецензия

MediaInfo

Общее
Уникальный идентификатор : 180151331331667833956559831434523046387 (0x8787E264FA24721D9AFB8960EFE7F1F3)
Полное имя : F:\Proekt.X.1987.x264.BDRip.(1080p).2xAO.sasha20072007.mkv
Формат : Matroska
Версия формата : Version 4 / Version 2
Размер файла : 9,40 Гбайт
Продолжительность : 1 ч. 47 м.
Общий поток : 12,5 Мбит/сек
Название фильма : Проект X / 1987 / rip by sasha20072007 (2012-10-06)
Дата кодирования : UTC 2010-02-22 21:41:31
Программа кодирования : mkvmerge v5.8.0 ('No Sleep / Pillow') built on Sep 30 2012 10:57:14
Библиотека кодирования : libebml v1.3.0 + libmatroska v1.4.0
Attachment : Yes / Yes
Видео
Идентификатор : 1
Формат : AVC
Формат/Информация : Advanced Video Codec
Профиль формата : High@L4.1
Параметр CABAC формата : Да
Параметр ReFrames формата : 5 кадров
Идентификатор кодека : V_MPEG4/ISO/AVC
Битрейт : 10,8 Мбит/сек
Ширина : 1920 пикселей
Высота : 1040 пикселей
Соотношение сторон : 1,85:1
Режим частоты кадров : Переменный
Частота кадров в оригинале : 23,976 кадра/сек
Цветовое пространство : YUV
Субдискретизация насыщенности : 4:2:0
Битовая глубина : 8 бит
Тип развёртки : Прогрессивная
Библиотека кодирования : x264 core 125 r2208 d9d2288
Настройки программы : cabac=1 / ref=5 / deblock=1:-3:-2 / analyse=0x3:0x133 / me=umh / subme=10 / psy=1 / psy_rd=1.00:0.17 / mixed_ref=1 / me_range=24 / chroma_me=1 / trellis=2 / 8x8dct=1 / cqm=0 / deadzone=21,11 / fast_pskip=1 / chroma_qp_offset=-3 / threads=4 / lookahead_threads=1 / sliced_threads=0 / nr=0 / decimate=1 / interlaced=0 / bluray_compat=0 / constrained_intra=0 / bframes=8 / b_pyramid=2 / b_adapt=2 / b_bias=0 / direct=1 / weightb=1 / open_gop=0 / weightp=2 / keyint=220 / keyint_min=22 / scenecut=40 / intra_refresh=0 / rc_lookahead=60 / rc=crf / mbtree=1 / crf=18.0 / qcomp=0.60 / qpmin=0 / qpmax=69 / qpstep=4 / vbv_maxrate=17500 / vbv_bufsize=14000 / crf_max=0.0 / nal_hrd=none / ip_ratio=1.27 / aq=1:0.80
Язык : English
Default : Да
Forced : Нет
Основные цвета : BT.709
Характеристики трансфера : BT.709
Коэффициенты матрицы : BT.709
Аудио #1
Идентификатор : 2
Формат : AC-3
Формат/Информация : Audio Coding 3
Расширение режима : CM (complete main)
Параметр Endianness формата : Big
Идентификатор кодека : A_AC3
Продолжительность : 1 ч. 47 м.
Вид битрейта : Постоянный
Битрейт : 640 Кбит/сек
Каналы : 6 каналов
Расположение каналов : Front: L C R, Side: L R, LFE
Частота : 48,0 КГц
Битовая глубина : 16 бит
Метод сжатия : С потерями
Размер потока : 493 Мбайт (5%)
Заголовок : Русский (Горчаков) AC3 5.1 640
Язык : Russian
Default : Да
Forced : Нет
Аудио #2
Идентификатор : 3
Формат : AC-3
Формат/Информация : Audio Coding 3
Расширение режима : CM (complete main)
Параметр Endianness формата : Big
Идентификатор кодека : A_AC3
Продолжительность : 1 ч. 47 м.
Вид битрейта : Постоянный
Битрейт : 192 Кбит/сек
Каналы : 2 канала
Расположение каналов : Front: L R
Частота : 48,0 КГц
Битовая глубина : 16 бит
Метод сжатия : С потерями
Размер потока : 148 Мбайт (2%)
Заголовок : Русский (Визгунов) AC3 2.0 192
Язык : Russian
Default : Нет
Forced : Нет
Аудио #3
Идентификатор : 4
Формат : AC-3
Формат/Информация : Audio Coding 3
Расширение режима : CM (complete main)
Параметр Endianness формата : Big
Идентификатор кодека : A_AC3
Продолжительность : 1 ч. 47 м.
Вид битрейта : Постоянный
Битрейт : 640 Кбит/сек
Каналы : 6 каналов
Расположение каналов : Front: L C R, Side: L R, LFE
Частота : 48,0 КГц
Битовая глубина : 16 бит
Метод сжатия : С потерями
Размер потока : 493 Мбайт (5%)
Заголовок : AC3 5.1 640
Язык : English
Default : Нет
Forced : Нет
Текст
Идентификатор : 5
Формат : PGS
Идентификатор кодека : S_HDMV/PGS
Идентификатор кодека/Информация : The same subtitle format used on BDs/HD-DVDs
Язык : English
Default : Нет
Forced : Нет
Меню
00:00:00.000 : en:01
00:05:00.233 : en:02
00:10:00.466 : en:03
00:15:10.933 : en:04
00:20:00.833 : en:05
00:25:00.333 : en:06
00:30:00.599 : en:07
00:35:00.266 : en:08
00:40:00.599 : en:09
00:45:00.000 : en:10
00:50:00.233 : en:11
00:55:00.466 : en:12
01:00:10.933 : en:13
01:10:00.833 : en:14
01:15:00.333 : en:15
01:20:00.599 : en:16
01:25:00.266 : en:17

Скриншоты


cd Рип дополнительно залит на mail.ru cd2
Proekt.X.1987.x264.BDRip.(1080p).2xAO.sasha20072007.mkv.torrent
 GOLD TORRENT! DOWNLOAD TRAFFIC DOES NOT CONSIDER! 
Torrent: Registered [ 2012-10-06 21:27 ]

Download .torrent

Download

24 KB

Status: checked
Completed: 0 times
Size: 9.4 GB
 


Last edited by admin on 2014-12-07 06:35; edited 2 times in total
[Profile] [PM]

Guest

Gender: Unknown

Post 29-Aug-2013 13:07 (after 10 months 22 days)

[Quote]

Оценка -- 5. В моей семье все пустили слезу.
 
Display posts:    
Reply to topic

Current time is: 17-Nov 17:40

All times are UTC + 3



You cannot post new topics in this forum
You cannot reply to topics in this forum
You cannot edit your posts in this forum
You cannot delete your posts in this forum
You cannot vote in polls in this forum
You cannot attach files in this forum
You can download files in this forum