Дюна / Dune (Дэвид Линч / David Lynch) [1984, США, фантастика, триллер, BDRip-1080p] [FanVersion] (ПМ)

Reply to topic
DL-List and Torrent activity
Size:  5.63 GB   |    Registered:  3 years 1 month   |    Completed:  4 times

Seeder not seen: 2 hours 59 minutes

 
   
 
 
 
Author Message

den904 ®

Gender: Male

Longevity: 7 years 3 months

Posts: 223

Post 29-Jul-2017 13:32

[Quote]

Дюна / Dune / FanVersion
Страна: США
Жанр: фантастика, триллер
Год выпуска: 1984
Продолжительность: 03:02:03
Перевод: Профессиональный (многоголосый) Berserk ,Дмитрий "SNK-TV", den904, DeadSno, Рури и Шевалье. Релиз Студий Колобок, Lovely Vox и SNK-TV.
Режиссер: Дэвид Линч / David Lynch
В ролях: Кайл МакЛоклен, Юрген Прохнов, Франческа Аннис, Патрик Стюарт, Ричард Джордан, Фредди Джонс, Дин Стокуэлл, Кеннет МакМиллан, Стинг, Пол Л. Смит
Описание: Планета Арракис, также известная под названием Дюна, год 10991. Это арена борьбы между злом и благородством, мир тончайших и опаснейших интриг. Гигантские песчаные черви длиной в целую милю сторожат бесценное сокровище - меланжевую пряность, позволяющую путешествовать сквозь Пространство и Время. Тот, кто контролирует пряность, контролирует Вселенную.
Народ Дюны ожидает пришествия Мессии, который поведет их на священную войну против династии злобных Харконненов. И Мессия является. Им становится юный Пол Атрейдес, сын герцога Лито, предательски убитого Харконненами с одобрения Императора. Полу предстоит великая миссия, которая навсегда изменит судьбу всей галактической империи…
Доп. информация: рейтинг MPAA детям до 13 лет просмотр не желателен
слоган «The Motion Picture Event For 1984»
бюджет $40 000 000
Качество видео: BDRip-1080p
Формат видео: MKV

MediaInfo

Format : AVI
Format/Info : Audio Video Interleave
Format profile : OpenDML
File size : 5.63 GiB
Duration : 3h 2mn
Overall bit rate : 4 426 Kbps
Movie name : Dune_FanVersion_1080p
Writing application : Lavf54.63.104
Video
ID : 0
Format : AVC
Format/Info : Advanced Video Codec
Format profile : Main@L4.0
Format settings, CABAC : Yes
Format settings, ReFrames : 1 frame
Codec ID : H264
Duration : 3h 2mn
Bit rate : 4 170 Kbps
Width : 1 920 pixels
Height : 816 pixels
Display aspect ratio : 2.35:1
Frame rate mode : Variable
Frame rate : 23.976 fps
Color space : YUV
Chroma subsampling : 4:2:0
Bit depth : 8 bits
Scan type : Progressive
Bits/(Pixel*Frame) : 0.111
Stream size : 5.29 GiB (94%)
Writing library : x264 core 129
Encoding settings : cabac=1 / ref=1 / deblock=1:0:0 / analyse=0x1:0x131 / me=dia / subme=2 / psy=1 / psy_rd=1.00:0.00 / mixed_ref=0 / me_range=16 / chroma_me=1 / trellis=0 / 8x8dct=0 / cqm=0 / deadzone=21,11 / fast_pskip=1 / chroma_qp_offset=0 / threads=4 / lookahead_threads=1 / sliced_threads=0 / nr=0 / decimate=1 / interlaced=0 / bluray_compat=0 / constrained_intra=0 / bframes=0 / weightp=2 / keyint=250 / keyint_min=25 / scenecut=40 / intra_refresh=0 / rc_lookahead=40 / rc=abr / mbtree=1 / bitrate=4170 / ratetol=1.0 / qcomp=0.60 / qpmin=10 / qpmax=51 / qpstep=4 / ip_ratio=1.41 / aq=1:1.00
Audio
ID : 1
Format : MPEG Audio
Format version : Version 1
Format profile : Layer 3
Mode : Joint stereo
Mode extension : MS Stereo
Codec ID : 55
Codec ID/Hint : MP3
Duration : 3h 2mn
Bit rate mode : Constant
Bit rate : 256 Kbps
Channel(s) : 2 channels
Sampling rate : 48.0 KHz
Compression mode : Lossy
Stream size : 333 MiB (6%)
Alignment : Aligned on interleaves
Interleave, duration : 24 ms (0.58 video frame)
Writing library : LAME3.99.КЂ8E / ї2Х
%5Bkinonavse100.com%5D Dune_FanVersion_1080p.avi.torrent
Torrent: Registered [ 2017-07-29 13:32 ]

Download .torrent

Download

16 KB

Status: * not checked
Completed: 4 times
Size: 5.63 GB
 
[Profile] [PM]

CROM@G

Gender: Male

Longevity: 5 years

Posts: 3382

Location: Прибалтика

Post 29-Jul-2017 14:59 (after 1 hour 27 minutes)

[Quote]

Дын ептить ты скрины умеешь делать ? И все бы поля аудио и видео хоть потихоньку заполнил бы
[Profile] [PM]

den904 ®

Gender: Male

Longevity: 7 years 3 months

Posts: 223

Post 29-Jul-2017 19:01 (after 4 hours)

[Quote]

croMAG, учуся))) надо упрощённую табличку для чайников сделать))
[Profile] [PM]

CROM@G

Gender: Male

Longevity: 5 years

Posts: 3382

Location: Прибалтика

Post 29-Jul-2017 19:26 (after 25 minutes)

[Quote]

den904, Еееее Ну для начала скрины ты умеешь делать ?
[Profile] [PM]

Guest

Gender: Unknown

Post 29-Jul-2017 20:08 (after 41 minute)

[Quote]

Клавиши alt + Print Screen нажимаешь. Потом открываешь графический редактор. Создаёшь рисунок и выбираешь вставить или Ctrl+V. У меня кнопочной мышкой всё вставляется, только кнопку нажал и всё.
 
Display posts:    
Reply to topic

Current time is: 28-Sep 04:43

All times are UTC + 3



You cannot post new topics in this forum
You cannot reply to topics in this forum
You cannot edit your posts in this forum
You cannot delete your posts in this forum
You cannot vote in polls in this forum
You cannot attach files in this forum
You can download files in this forum