Шлок / Банановый монстр / Schlock / The Banana Monster (Джон Лэндис) [1973, США, Фантастика, трэш, чёрная комедия, DVDRip] (АО : Трамвай-фильм)

Ответить на тему
Статистика раздачи
Размер:  792 MB   |    Зарегистрирован:  1 год 1 месяц   |    Скачан:  4 раза

Полного источника не было: 2 дня 20 часов

 
   
 
 
 
Автор Сообщение

Трамвай-фильм ®

Пол: Мужской

Стаж: 4 года

Сообщений: 1264

Откуда: Россия

Создавать темы 11-Июл-2017 14:32

[Цитировать]

Шлок / Банановый монстр / Schlock / The Banana Monster
Страна: США
Жанр: Фантастика, трэш, чёрная комедия
Год выпуска: 1973
Продолжительность: 01:18:58
Перевод: Авторский (одноголосый) Трамвай-фильм
Режиссер: Джон Лэндис
В ролях: Джон Лэндис, Сол Кэхен, Джозеф Пиантадоси, Элис Робертс, Эрик Элисон и др.
Описание: Пародийно-гротескный фильм о том как допотопный гоминид терроризирует небольшой городок в американской глуши, после спячки в 20 млн. лет.
Доп. информация: Фильм переполнен различными "подколами" над американской субкультурой, так же в нем впервые упоминается выдуманный фильм "Увидимся в следующую среду", который режиссер Джо Лэндис "вставлял" в свои последующие работы.
Качество видео: DVDRip
Видео: Xvid, 656x352, 23.976fps, 1 016 kb/s
Аудио 1: Dolby AC3, 48000Hz, stereo, 192kbps [Russian]
Аудио 2: Dolby AC3, 48000Hz, stereo, 192kbps [English]

MediaInfo

ideo
ID : 1
Format : MPEG-4 Visual
Format profile : Advanced Simple@L5
Format settings, BVOP : 1
Format settings, QPel : No
Format settings, GMC : No warppoints
Format settings, Matrix : Default (MPEG)
Muxing mode : Packed bitstream
Codec ID : V_MS/VFW/FOURCC / XVID
Codec ID/Hint : XviD
Duration : 1 h 18 min
Bit rate : 1 016 kb/s
Width : 656 pixels
Height : 352 pixels
Display aspect ratio : 1.85:1
Frame rate mode : Constant
Frame rate : 23.976 (24000/1001) FPS
Color space : YUV
Chroma subsampling : 4:2:0
Bit depth : 8 bits
Scan type : Progressive
Compression mode : Lossy
Bits/(Pixel*Frame) : 0.184
Stream size : 574 MiB (72%)
Writing library : XviD 1.2.0.dev47 (UTC 2006-11-01)
Default : Yes
Forced : No
Audio #1
ID : 2
Format : AC-3
Format/Info : Audio Coding 3
Mode extension : CM (complete main)
Format settings, Endianness : Big
Codec ID : A_AC3
Duration : 1 h 18 min
Bit rate mode : Constant
Bit rate : 192 kb/s
Channel(s) : 2 channels
Channel positions : Front: L R
Sampling rate : 48.0 kHz
Frame rate : 31.250 FPS (1536 spf)
Bit depth : 16 bits
Compression mode : Lossy
Stream size : 108 MiB (14%)
Language : Russian
Default : Yes
Forced : No
Audio #2
ID : 3
Format : AC-3
Format/Info : Audio Coding 3
Mode extension : CM (complete main)
Format settings, Endianness : Big
Codec ID : A_AC3
Duration : 1 h 18 min
Bit rate mode : Constant
Bit rate : 192 kb/s
Channel(s) : 2 channels
Channel positions : Front: L R
Sampling rate : 48.0 kHz
Frame rate : 31.250 FPS (1536 spf)
Bit depth : 16 bits
Compression mode : Lossy
Stream size : 108 MiB (14%)
Language : English
Default : No
Forced : No

Скриншоты

[



Schlock.mkv.torrent
Торрент: Зарегистрирован [ 2017-07-11 14:32 ]

Скачать .torrent

Скачать

16 KB

Статус: проверено
Скачан: 4 раз
Размер: 792 MB
 
[Профиль] [ЛС]
Показать сообщения:    
Ответить на тему

Текущее время: 21-Авг 20:49

Часовой пояс: UTC + 3:30



Вы не можете начинать темы
Вы не можете отвечать на сообщения
Вы не можете редактировать свои сообщения
Вы не можете удалять свои сообщения
Вы не можете голосовать в опросах
Вы не можете прикреплять файлы к сообщениям
Вы можете скачивать файлы