Жаба - Воин / Toad Warrior [1996, USA, Фантастика Трэш, DVDRip] ЛО (den904), СТ (kosmoaelita-karlivanovich)

Reply to topic
 
Author Message

CROM@G ®

Gender: Male

Longevity: 4 years 8 months

Posts: 3319

Location: Прибалтика

Post 06-Jul-2017 17:34

[Quote]

Жаба - Воин / Toad Warrior
Страна: USA
Жанр: Фантастика Трэш
Год выпуска: 1996
Продолжительность: 01:19:24
Перевод: ЛО den904 по субтитрам от (kosmoaelita-karlivanovich)
В ролях:
Scott Shaw ... Max Hell
Joe Estevez ... Mickey O'Malley
Conrad Brooks ... Swamp Farmer
Jill Kelly ... Agent Glory
Elizabeth Mehr ... Dr. Trixi T.
Roger Ellis ... Overlord War Toad
Whitney Scott Bain ... Humphrey Bullfrog
Kim Basset ... Frog Warrior 1
Kerri Halley ... Frog Warrior 2
Selina Jayne ... Psychic
Fay Kato ... Ninja Girl
Robin Kimberly ... Agent Spangle
Sandra Purpuro ... Cricket
Camille Solari ... Agent Star
Jill Tompkins ... Toad Girl 2
Vicky Torres ... Agent Bangle
Tom Tom Typhoon ... O'Malley's Ninja
Nancy Vee ... Toad Girl 1 (as Nancy V.)
Описание: The Earth is being swept by a toad plague. Enter, the lone Samurai, Max Hell (Scott Shaw), the Earth's last hope to save the planet from the mad clutches of Mickey O'Malley
Релиз

Качество: DVDRip
Формат: MKV
Видео: x264, 2328 кбит/с, 704x528, 23.976 к/с
Аудио 1: Русский (AC3, 2 ch, 192 Кбит/с)
Аудио 2: Английский (AC3, 2 ch, 192 Кбит/с)
Субтитры : Русские ()
Работа над релизом:
Релиз kosmoaelita.
Видеоряд найден на синемагеддоне.
Перевод на слух с англ. по заказу kosmoaelita - karlivanovich
Русская озвучка по заказу kosmoaelita - den904
Спонсор русской озвучки - Андрей Берг

MediaInfo

Общее
Уникальный идентификатор : 181880640191989674247784981909498857043 (0x88D4EFE76CAAD802B7A12CF5F6858653)
Полное имя : F:\Toad Warrior 1996.XviD.DVDRip.Rus.kosmoaelita.mkv
Формат : Matroska
Версия формата : Version 4 / Version 2
Размер файла : 1,53 Гбайт
Продолжительность : 1 ч. 19 м.
Общий поток : 2767 Кбит/сек
Название фильма : Toad Warrior / 1996 / Релиз kosmoaelita
Дата кодирования : UTC 2017-11-12 16:32:02
Программа кодирования : mkvmerge v6.6.0 ('The Edge Of The In Between') built on Dec 1 2013 17:55:00
Библиотека кодирования : libebml v1.3.0 + libmatroska v1.4.1
Attachments : Poster.JPG
Видео
Идентификатор : 1
Формат : MPEG-4 Visual
Профиль формата : Advanced Simple@L5
Параметр BVOP формата : 2
Параметр QPel формата : Нет
Параметр GMC формата : Без точки перехода
Параметр матрицы формата : Default (H.263)
Идентификатор кодека : V_MS/VFW/FOURCC / XVID
Идентификатор кодека/Подсказка : XviD
Продолжительность : 1 ч. 19 м.
Битрейт : 2328 Кбит/сек
Ширина : 704 пикселя
Высота : 528 пикселей
Соотношение сторон : 4:3
Режим частоты кадров : Постоянный
Частота кадров : 23,976 (23976/1000) кадра/сек
Цветовое пространство : YUV
Субдискретизация насыщенности : 4:2:0
Битовая глубина : 8 бит
Тип развёртки : Прогрессивная
Метод сжатия : С потерями
Бит/(Пиксели*Кадры) : 0.261
Размер потока : 1,29 Гбайт (84%)
Заголовок : kosmoaelita
Библиотека кодирования : XviD 1.2.1 (UTC 2008-12-04)
Default : Да
Forced : Нет
Аудио #1
Идентификатор : 2
Формат : AC-3
Формат/Информация : Audio Coding 3
Расширение режима : CM (complete main)
Параметр Endianness формата : Big
Идентификатор кодека : A_AC3
Продолжительность : 1 ч. 19 м.
Вид битрейта : Постоянный
Битрейт : 192 Кбит/сек
Каналы : 2 канала
Расположение каналов : Front: L R
Частота : 48,0 КГц
Частота кадров : 31,250 кадров/сек (1536 spf)
Метод сжатия : С потерями
Размер потока : 109 Мбайт (7%)
Заголовок : Русский ЛО (den904 для kosmoaelita.com) - поддержка А.Берг
Язык : Russian
Default : Да
Forced : Нет
Аудио #2
Идентификатор : 3
Формат : AC-3
Формат/Информация : Audio Coding 3
Расширение режима : CM (complete main)
Параметр Endianness формата : Big
Идентификатор кодека : A_AC3
Продолжительность : 1 ч. 19 м.
Вид битрейта : Постоянный
Битрейт : 192 Кбит/сек
Каналы : 2 канала
Расположение каналов : Front: L R
Частота : 48,0 КГц
Частота кадров : 31,250 кадров/сек (1536 spf)
Метод сжатия : С потерями
Размер потока : 109 Мбайт (7%)
Язык : English
Default : Нет
Forced : Нет
Текст #1
Идентификатор : 4
Формат : UTF-8
Идентификатор кодека : S_TEXT/UTF8
Идентификатор кодека/Информация : UTF-8 Plain Text
Заголовок : Русский (kosmoaelita-karlivanovich) srt - перевод на слух с англ.
Язык : Russian
Default : Да
Forced : Нет
Текст #2
Идентификатор : 5
Формат : VobSub
Режим смешивания : zlib
Идентификатор кодека : S_VOBSUB
Идентификатор кодека/Информация : Picture based subtitle format used on DVDs
Заголовок : Русский (kosmoaelita-karlivanovich) VobSub - перевод на слух с англ.
Язык : Russian
Default : Нет
Forced : Нет
Текст #3
Идентификатор : 6
Формат : VobSub
Режим смешивания : zlib
Идентификатор кодека : S_VOBSUB
Идентификатор кодека/Информация : Picture based subtitle format used on DVDs
Заголовок : Русский (kosmoaelita-karlivanovich) VobSub - перевод на слух с англ.
Язык : Russian
Default : Нет
Forced : Нет

Скриншоты












Скринлист

cd Рип дополнительно залит на ОБЛАКО cd2
[Profile] [PM]

CROM@G ®

Gender: Male

Longevity: 4 years 8 months

Posts: 3319

Location: Прибалтика

Post 06-Jul-2017 17:36 (after 2 minutes)

[Quote]

Ночью не раздаю
[Profile] [PM]
Display posts:    
Reply to topic

Current time is: 05-Jun 22:58

All times are UTC + 3



You cannot post new topics in this forum
You cannot reply to topics in this forum
You cannot edit your posts in this forum
You cannot delete your posts in this forum
You cannot vote in polls in this forum
You cannot attach files in this forum
You cannot download files in this forum