Отбросы и прогресс / Треш и прогресс / Trash and Progress (Abraham Dieckman / Абе Дикман) [2012, США, фантастика, драма, вестерн, WEB-DL-720p] ЛО (den904), СТ (Severnyj)

Ответить на тему
 
Автор Сообщение

kosmoaelita ®

Пол: Мужской

Стаж: 6 лет 4 месяца

Сообщений: 966

Откуда: Украина

Создавать темы 01-Июл-2017 16:09

[Цитировать]

Отбросы и прогресс / Треш и прогресс / Trash and Progress
Страна: США
Жанр: фантастика, драма, вестерн
Год выпуска: 2012
Продолжительность: 01:33:41
Перевод: Severnyj
Озвучка: den904 по заказу Андрея Берга
Режиссер: Abraham Dieckman / Абе Дикман
В ролях:
Maryssa Wanlass ... Ellie Parrish
rest of cast listed alphabetically:
Remi Barron ... Calvin Aprils
James Camblin ... Robert Leland
Lindsay Cookson ... Darla Dixie
Jesse Filipko ... Johannes Pullings
Conor Hamill ... Willard Dodd
Daniel Korth ... Daniel Parrish
Elizabeth Marks ... Propagandist (voice)
Peter Jonathan McArthur ... Elliot Muddle
Samuel Richie ... Benjamin August
Jessica Robertson ... Molly Pullings
Mia Simone ... Millie Fletcher (as Mia Wheaton)
Charlie Vaughn ... Maynard Fletcher
Описание: A rookie journalist has returned to the abandoned frontier of Earth with the dream of writing a career-making story about the descendants of those who were left behind. There she finds a decaying society ruled through fear by a mysterious, ageless despot.
Релиз

Качество: WEB-DL-720p
Формат: MKV
Видео: x264, 4093 кбит/с, 1280x524, 23.976 к/с,
Аудио 2: Русский (AC3, 2 ch, 192 Кбит/с)
Работа над релизом:
Релиз kosmoaelita.
Видеоряд найден в сети.
Перевод на слух с англ. по заказу kosmoaelita - Severnyj
Озвучено по заказу Андрея Берга


MediaInfo

General
Unique ID : 195087729533808522774613194116518325103 (0x92C487AEAE4B1F3CAC429FEA50072B6F)
Complete name : E:\Наши фильмы\Trash.and.Progress.2012.UNRATED.720p.WEB-DL.DD5.1.H.264-HD4FUN.mkv
Format : Matroska
Format version : Version 4 / Version 2
File size : 2.86 GiB
Duration : 1 h 33 min
Overall bit rate : 4 376 kb/s
Movie name : ripped by HD4FUN.COM
Encoded date : UTC 2017-11-07 09:03:29
Writing application : mkvmerge v6.2.0 ('Promised Land') built on Apr 28 2013 12:22:01
Writing library : libebml v1.3.0 + libmatroska v1.4.0
Video
ID : 1
Format : AVC
Format/Info : Advanced Video Codec
Format profile : Main@L3.1
Format settings, CABAC : No
Format settings, ReFrames : 2 frames
Codec ID : V_MPEG4/ISO/AVC
Duration : 1 h 33 min
Bit rate : 4 097 kb/s
Width : 1 280 pixels
Height : 524 pixels
Display aspect ratio : 2.40:1
Frame rate mode : Constant
Frame rate : 23.976 FPS
Color space : YUV
Chroma subsampling : 4:2:0
Bit depth : 8 bits
Scan type : Progressive
Bits/(Pixel*Frame) : 0.255
Stream size : 2.68 GiB (94%)
Title : ripped by HD4FUN.COM
Language : English
Default : Yes
Forced : No
Color range : Limited
Color primaries : BT.709
Transfer characteristics : BT.709
Matrix coefficients : BT.709
Audio
ID : 2
Format : AC-3
Format/Info : Audio Coding 3
Format settings, Endianness : Big
Codec ID : A_AC3
Duration : 1 h 33 min
Bit rate mode : Constant
Bit rate : 192 kb/s
Channel(s) : 2 channels
Channel positions : Front: L R
Sampling rate : 48.0 kHz
Frame rate : 31.250 FPS (1536 spf)
Bit depth : 16 bits
Compression mode : Lossy
Stream size : 129 MiB (4%)
Service kind : Complete Main
Default : Yes
Forced : No

Скринлист



Последний раз редактировалось: kosmoaelita (2017-07-01 20:11), всего редактировалось 4 раз(а)
[Профиль] [ЛС]

kosmoaelita ®

Пол: Мужской

Стаж: 6 лет 4 месяца

Сообщений: 966

Откуда: Украина

Создавать темы 01-Июл-2017 16:19 (спустя 10 минут)

[Цитировать]

Редкостная бредятина. Нихера не понятно...
[Профиль] [ЛС]

croMAG

Пол: Мужской

Стаж: 3 года 4 месяца

Сообщений: 1976

Откуда: Прибалтика

Создавать темы 01-Июл-2017 17:35 (спустя 1 час 15 минут)

[Цитировать]

Представляю как матерился Северный когда переводил ag
[Профиль] [ЛС]

kosmoaelita ®

Пол: Мужской

Стаж: 6 лет 4 месяца

Сообщений: 966

Откуда: Украина

Создавать темы 01-Июл-2017 18:26 (спустя 50 минут)

[Цитировать]

Такое впечатление. что 20-серийный сериал запихнули в одну полнометражку ab
[Профиль] [ЛС]

AlexNT60

Пол: Мужской

Стаж: 5 лет 11 месяцев

Сообщений: 87

Откуда: СПб

Создавать темы 05-Май-2018 17:54 (спустя 10 месяцев 3 дня)

[Цитировать]

Будет ли раздача с озвучкой?
[Профиль] [ЛС]

croMAG

Пол: Мужской

Стаж: 3 года 4 месяца

Сообщений: 1976

Откуда: Прибалтика

Создавать темы 05-Май-2018 19:12 (спустя 1 час 17 минут)

[Цитировать]

Скорей всего нет
[Профиль] [ЛС]

AlexNT60

Пол: Мужской

Стаж: 5 лет 11 месяцев

Сообщений: 87

Откуда: СПб

Создавать темы 05-Май-2018 20:41 (спустя 1 час 28 минут)

[Цитировать]

croMAG, печалька...
[Профиль] [ЛС]

croMAG

Пол: Мужской

Стаж: 3 года 4 месяца

Сообщений: 1976

Откуда: Прибалтика

Создавать темы 06-Май-2018 09:15 (спустя 12 часов)

[Цитировать]

AlexNT60,
Ну ты можешь за 300 рублей у Дэна заказать Хрущев пропал в неизвестном направлении
[Профиль] [ЛС]

AlexNT60

Пол: Мужской

Стаж: 5 лет 11 месяцев

Сообщений: 87

Откуда: СПб

Создавать темы 06-Май-2018 11:52 (спустя 2 часа 37 минут)

[Цитировать]

croMAG, OK. Понял.
[Профиль] [ЛС]

AlexNT60

Пол: Мужской

Стаж: 5 лет 11 месяцев

Сообщений: 87

Откуда: СПб

Создавать темы 19-Ноя-2018 22:54 (спустя 6 месяцев 13 дней)

[Цитировать]

bi
[Профиль] [ЛС]

croMAG

Пол: Мужской

Стаж: 3 года 4 месяца

Сообщений: 1976

Откуда: Прибалтика

Создавать темы 19-Ноя-2018 23:05 (спустя 11 минут)

[Цитировать]

Чего ??
[Профиль] [ЛС]

Трамвай-фильм

Пол: Мужской

Стаж: 4 года 5 месяцев

Сообщений: 1369

Откуда: Россия

Создавать темы 19-Ноя-2018 23:13 (спустя 8 минут)

[Цитировать]

19697Редкостная бредятина. Нихера не понятно...
если верить английской аннотации, то смысл примерно такой: Журналист приезжает на край Света, мечтая сделать карьеру историей о потомках тех, кто остался жить в этой глуши. Но там он обнаружил гнилое общество, которое держит в страхе загадочный деспот
[Профиль] [ЛС]
Быстрый ответ

Имя:

            
Для отправки сообщений необходимо включить JavaScript
Показать сообщения:    
Ответить на тему

Текущее время: 17-Янв 22:39

Часовой пояс: UTC + 3:30



Вы не можете начинать темы
Вы можете отвечать на сообщения
Вы не можете редактировать свои сообщения
Вы не можете удалять свои сообщения
Вы не можете голосовать в опросах
Вы не можете прикреплять файлы к сообщениям
Вы не можете скачивать файлы