Отбросы и прогресс / Треш и прогресс / Trash and Progress (Abraham Dieckman / Абе Дикман) [2012, США, фантастика, драма, вестерн, WEB-DL-720p] ЛО (den904), СТ (Severnyj)

Reply to topic
 
Author Message

kosmoaelita ®

Gender: Male

Longevity: 49 years

Posts: 965

Post 01-Jul-2017 15:39

[Quote]

Отбросы и прогресс / Треш и прогресс / Trash and Progress
Страна: США
Жанр: фантастика, драма, вестерн
Год выпуска: 2012
Продолжительность: 01:33:41
Перевод: Severnyj
Озвучка: den904 по заказу Андрея Берга
Режиссер: Abraham Dieckman / Абе Дикман
В ролях:
Maryssa Wanlass ... Ellie Parrish
rest of cast listed alphabetically:
Remi Barron ... Calvin Aprils
James Camblin ... Robert Leland
Lindsay Cookson ... Darla Dixie
Jesse Filipko ... Johannes Pullings
Conor Hamill ... Willard Dodd
Daniel Korth ... Daniel Parrish
Elizabeth Marks ... Propagandist (voice)
Peter Jonathan McArthur ... Elliot Muddle
Samuel Richie ... Benjamin August
Jessica Robertson ... Molly Pullings
Mia Simone ... Millie Fletcher (as Mia Wheaton)
Charlie Vaughn ... Maynard Fletcher
Описание: A rookie journalist has returned to the abandoned frontier of Earth with the dream of writing a career-making story about the descendants of those who were left behind. There she finds a decaying society ruled through fear by a mysterious, ageless despot.
Релиз

Качество: WEB-DL-720p
Формат: MKV
Видео: x264, 4093 кбит/с, 1280x524, 23.976 к/с,
Аудио 2: Русский (AC3, 2 ch, 192 Кбит/с)
Работа над релизом:
Релиз kosmoaelita.
Видеоряд найден в сети.
Перевод на слух с англ. по заказу kosmoaelita - Severnyj
Озвучено по заказу Андрея Берга


MediaInfo

General
Unique ID : 195087729533808522774613194116518325103 (0x92C487AEAE4B1F3CAC429FEA50072B6F)
Complete name : E:\Наши фильмы\Trash.and.Progress.2012.UNRATED.720p.WEB-DL.DD5.1.H.264-HD4FUN.mkv
Format : Matroska
Format version : Version 4 / Version 2
File size : 2.86 GiB
Duration : 1 h 33 min
Overall bit rate : 4 376 kb/s
Movie name : ripped by HD4FUN.COM
Encoded date : UTC 2017-11-07 09:03:29
Writing application : mkvmerge v6.2.0 ('Promised Land') built on Apr 28 2013 12:22:01
Writing library : libebml v1.3.0 + libmatroska v1.4.0
Video
ID : 1
Format : AVC
Format/Info : Advanced Video Codec
Format profile : Main@L3.1
Format settings, CABAC : No
Format settings, ReFrames : 2 frames
Codec ID : V_MPEG4/ISO/AVC
Duration : 1 h 33 min
Bit rate : 4 097 kb/s
Width : 1 280 pixels
Height : 524 pixels
Display aspect ratio : 2.40:1
Frame rate mode : Constant
Frame rate : 23.976 FPS
Color space : YUV
Chroma subsampling : 4:2:0
Bit depth : 8 bits
Scan type : Progressive
Bits/(Pixel*Frame) : 0.255
Stream size : 2.68 GiB (94%)
Title : ripped by HD4FUN.COM
Language : English
Default : Yes
Forced : No
Color range : Limited
Color primaries : BT.709
Transfer characteristics : BT.709
Matrix coefficients : BT.709
Audio
ID : 2
Format : AC-3
Format/Info : Audio Coding 3
Format settings, Endianness : Big
Codec ID : A_AC3
Duration : 1 h 33 min
Bit rate mode : Constant
Bit rate : 192 kb/s
Channel(s) : 2 channels
Channel positions : Front: L R
Sampling rate : 48.0 kHz
Frame rate : 31.250 FPS (1536 spf)
Bit depth : 16 bits
Compression mode : Lossy
Stream size : 129 MiB (4%)
Service kind : Complete Main
Default : Yes
Forced : No

Скринлист



Last edited by kosmoaelita on 2017-07-01 19:41; edited 4 times in total
[Profile] [PM]

kosmoaelita ®

Gender: Male

Longevity: 49 years

Posts: 965

Post 01-Jul-2017 15:49 (after 10 minutes)

[Quote]

Редкостная бредятина. Нихера не понятно...
[Profile] [PM]

CROM@G

Gender: Male

Longevity: 4 years

Posts: 2248

Location: Прибалтика

Post 01-Jul-2017 17:05 (after 1 hour 15 minutes)

[Quote]

Представляю как матерился Северный когда переводил ag
[Profile] [PM]

kosmoaelita ®

Gender: Male

Longevity: 49 years

Posts: 965

Post 01-Jul-2017 17:56 (after 50 minutes)

[Quote]

Такое впечатление. что 20-серийный сериал запихнули в одну полнометражку ab
[Profile] [PM]

AlexNT60

Gender: Male

Longevity: 6 years 7 months

Posts: 99

Location: СПб

Post 05-May-2018 17:24 (after 10 months 3 days)

[Quote]

Будет ли раздача с озвучкой?
[Profile] [PM]

CROM@G

Gender: Male

Longevity: 4 years

Posts: 2248

Location: Прибалтика

Post 05-May-2018 18:42 (after 1 hour 17 minutes)

[Quote]

Скорей всего нет
[Profile] [PM]

AlexNT60

Gender: Male

Longevity: 6 years 7 months

Posts: 99

Location: СПб

Post 05-May-2018 20:11 (after 1 hour 28 minutes)

[Quote]

croMAG, печалька...
[Profile] [PM]

CROM@G

Gender: Male

Longevity: 4 years

Posts: 2248

Location: Прибалтика

Post 06-May-2018 08:45 (after 12 hours)

[Quote]

AlexNT60,
Ну ты можешь за 300 рублей у Дэна заказать Хрущев пропал в неизвестном направлении
[Profile] [PM]

AlexNT60

Gender: Male

Longevity: 6 years 7 months

Posts: 99

Location: СПб

Post 06-May-2018 11:22 (after 2 hours 37 minutes)

[Quote]

croMAG, OK. Понял.
[Profile] [PM]

AlexNT60

Gender: Male

Longevity: 6 years 7 months

Posts: 99

Location: СПб

Post 19-Nov-2018 22:24 (after 6 months 13 days)

[Quote]

bi
[Profile] [PM]

CROM@G

Gender: Male

Longevity: 4 years

Posts: 2248

Location: Прибалтика

Post 19-Nov-2018 22:35 (after 11 minutes)

[Quote]

Чего ??
[Profile] [PM]

Трамвай-фильм

Gender: Male

Longevity: 5 years 1 month

Posts: 1533

Location: Россия

Post 19-Nov-2018 22:43 (after 8 minutes)

[Quote]

19697Редкостная бредятина. Нихера не понятно...
если верить английской аннотации, то смысл примерно такой: Журналист приезжает на край Света, мечтая сделать карьеру историей о потомках тех, кто остался жить в этой глуши. Но там он обнаружил гнилое общество, которое держит в страхе загадочный деспот
[Profile] [PM]
Display posts:    
Reply to topic

Current time is: 19-Sep 00:56

All times are UTC + 3



You cannot post new topics in this forum
You cannot reply to topics in this forum
You cannot edit your posts in this forum
You cannot delete your posts in this forum
You cannot vote in polls in this forum
You cannot attach files in this forum
You cannot download files in this forum