Крылатые всадники / Eagle Riders [1996, США, Япония, DVDRip] (АО : Трамвай-фильм)

Reply to topic
 
Author Message

Faer ®

Gender: Male

Longevity: 4 years 4 months

Posts: 344

Location: Сербия

Post 27-Jun-2017 00:33

[Quote]

Крылатые всадники / Eagle Riders
Страна: США, Япония
Год выпуска: 1996
Продолжительность: 00:24:00
Перевод: Авторский (одноголосый) _ Трамвай-фильм
Cубтитры: нет
Описание: Компиляция "Команды Ниндзя-учены Гатчаман", сезонов 2 и 3, которую издала фирма SABAN, для проката в США и Канаде. 5 отважных молодых людей, крылатых всадников, под руководством доктора Кина ведет бой с инопланетной расой Ворак. (с) Трамвай-фильм
Качество видео: DVDRip
Формат видео: AVI
Видео: XviD, 720x480, 3:2, 29.97fps, 2067 Кбит/с
Аудио: MPEG3, 44.1КГц, 128 Кбит/с, стерео

MediaInfo

Общее
Полное имя : C:\Users\Павел\Desktop\eagle.riders.01.avi
Формат : AVI
Формат/Информация : Audio Video Interleave
Размер файла : 350 Мбайт
Продолжительность : 22 м. 7 с.
Общий поток : 2213 Кбит/сек
Видео
Идентификатор : 0
Формат : MPEG-4 Visual
Профиль формата : Simple@L3
Параметр BVOP формата : Нет
Параметр QPel формата : Нет
Параметр GMC формата : Без точки перехода
Параметр матрицы формата : Default (H.263)
Идентификатор кодека : XVID
Идентификатор кодека/Подсказка : XviD
Продолжительность : 22 м. 7 с.
Битрейт : 2067 Кбит/сек
Ширина : 720 пикселей
Высота : 480 пикселей
Соотношение сторон : 3:2
Частота кадров : 29,970 (30000/1001) кадров/сек
Частота кадров в оригинале : 29,000 кадров/сек
Стандарт вещания : NTSC
Цветовое пространство : YUV
Субдискретизация насыщенности : 4:2:0
Битовая глубина : 8 бит
Тип развёртки : Прогрессивная
Метод сжатия : С потерями
Бит/(Пиксели*Кадры) : 0.200
Размер потока : 327 Мбайт (93%)
Библиотека кодирования : XviD 1.2.1 (UTC 2008-12-04)
Аудио
Идентификатор : 1
Формат : MPEG Audio
Версия формата : Version 1
Профиль формата : Layer 3
Режим : Joint stereo
Расширение режима : MS Stereo
Идентификатор кодека : 55
Идентификатор кодека/Подсказка : MP3
Продолжительность : 22 м. 7 с.
Вид битрейта : Постоянный
Битрейт : 128 Кбит/сек
Каналы : 2 канала
Частота : 44,1 КГц
Метод сжатия : С потерями
Размер потока : 20,3 Мбайт (6%)
Выравнивание : Соединение по промежуткам
Продолжительность промежутка : 26 мс. (0,78 видеокадр)
Библиотека кодирования : LAME3.98.2

Скриншоты





Last edited by Faer on 2017-06-27 00:35; edited 1 time in total
[Profile] [PM]

Faer ®

Gender: Male

Longevity: 4 years 4 months

Posts: 344

Location: Сербия

Post 27-Jun-2017 00:34 (after 56 seconds)

[Quote]

Залито на облако, за доступом обращайтесь ко мне или Трамвай-фильму.
Торрент залью позже, надо самому ещё с облака скачать.
[Profile] [PM]

Трамвай-фильм

Gender: Male

Longevity: 4 years 9 months

Posts: 1454

Location: Россия

Post 27-Jun-2017 20:17 (after 19 hours)

[Quote]

О, наконец-то самый долгий проект за мою карьеру. Хоть не пошел коту под хвост.
[Profile] [PM]

croMAG

Gender: Male

Longevity: 3 years 8 months

Posts: 2137

Location: Прибалтика

Post 28-Jun-2017 14:47 (after 18 hours)

[Quote]

Трамвай-фильм, Че длиннее сказок ?
[Profile] [PM]

Трамвай-фильм

Gender: Male

Longevity: 4 years 9 months

Posts: 1454

Location: Россия

Post 28-Jun-2017 17:54 (after 3 hours)

[Quote]

19658Трамвай-фильм, Че длиннее сказок ?
Я пока 7 серий сказок сделал, если я не ошибаюсь. А тут их аж 65!
[Profile] [PM]
Display posts:    
Reply to topic

Current time is: 26-May 10:09

All times are UTC + 3



You cannot post new topics in this forum
You cannot reply to topics in this forum
You cannot edit your posts in this forum
You cannot delete your posts in this forum
You cannot vote in polls in this forum
You cannot attach files in this forum
You cannot download files in this forum