Путешественники во времени / Путешествие во времени / Time Travellers (Alexander Singer / Александр Сингер) [1976, США, фантастика, триллер, приключения, DVDRip] СТ (kosmoaelita-karlivanovich)

Ответить на тему
 
Автор Сообщение

kosmoaelita ®

Пол: Мужской

Стаж: 6 лет

Сообщений: 966

Откуда: Украина

Создавать темы 26-Июн-2017 16:08

[Цитировать]

Путешественники во времени / Путешествие во времени / Time Travellers
Страна: США, 20th Century Fox Television, Irwin Allen Productions
Жанр: фантастика, триллер, приключения
Год выпуска: 1976
Продолжительность: 01:12:50
Перевод: Субтитры kosmoaelita-karlivanovich
Режиссер: Alexander Singer / Александр Сингер
В ролях:
Sam Groom ... Dr. Clint Earnshaw
Tom Hallick ... Jeff Adams
Francine York ... Dr. Helen Sanders
Booth Colman ... Dr. Amos Cummings
Richard Basehart ... Dr. Joshua Henderson (1871)
Trish Stewart ... Jane Henderson (1871)
Walter Brooke ... Dr. Stafford
Patrick Culliton ... Jim Younger (1871)
Dort Clark ... Sharkey (1871)
Jon Cedar ... Pegleg (1871)
Gil Lamb ... Hansom Cabby (1871)
Ed Ness ... Joe - Hospital Attendant (1871)
Kathleen Bracken ... Katherine - Irish girl (1871)
Richard Webb ... Police Sergeant
Victoria Paige Meyerink ... Betty (as Victoria Meyerink)
Fred Borden ... Band Master
Baynes Barron ... Fire Chief Williams (1871)
Albert Cole ... News Vendor (1871)
Rita Lupino ... Prostitute (1871)
Описание: Мир сокрушен эпидемией, и ученые должны найти способ лечения. Исследование показывает, что такая эпидемия была в 1871, и там была найдена вакцина. Но до наших дней, способ её приготовления не сохранился, а погиб в Большом Чикагском Пожаре. И ученые, которые разработали машину времени, предлагают вернуться назад к 1871г. и получить образцы вакцины.
Релиз

Качество: DVDRip
Формат: MKV
Видео: xviD, 2292 кбит/с, 720x544, 25 к/с
Аудио 2: Английский (AC3, 2 ch, 192 Кбит/с)
Субтитры : Русские ()
Работа над релизом:
Релиз kosmoaelita.
Видеоряд найден в сети.
Перевод на слух с англ. по заказу kosmoaelita - karlivanovich



Пример русских субтитров

Дополнительно

Also Known As (AKA)
(original title) Time Travelers
Australia Time Travelers
Canada (French title) (complete title) Projetés dans le temps
Canada (English title) Time Travelers
UK Time Travelers
New Zealand (English title) Time Travelers
Poland Czas podrózników
Romania Calatorii timpului
Soviet Union (Russian title) (transliterated ISO-LATIN-1 title) Puteshestviye vo vremeni
Soviet Union (Russian title) Путешествие во времени
Формат изображения: 1.33 : 1
Формат копии: 35 mm
Формат съёмок: 35 mm
Изображение: цветное
Язык: английский

MediaInfo

Общее
Уникальный идентификатор : 215989417188215902604094425139093004271 (0xA27E0C72947FDFEB97DBED2818315FEF)
Полное имя : F:\Time Travellers 1976.XviD.DVDRip.kosmoaelita.mkv
Формат : Matroska
Версия формата : Version 4 / Version 2
Размер файла : 1,29 Гбайт
Продолжительность : 1 ч. 12 м.
Общий поток : 2534 Кбит/сек
Название фильма : Путешественики во времени / Time Travellers / 1976 /Релиз kosmoaelita.com
Дата кодирования : UTC 2017-06-29 23:30:44
Программа кодирования : mkvmerge v6.6.0 ('The Edge Of The In Between') built on Dec 1 2013 17:55:00
Библиотека кодирования : libebml v1.3.0 + libmatroska v1.4.1
Attachments : poster.jpg
Видео
Идентификатор : 1
Формат : MPEG-4 Visual
Профиль формата : Advanced Simple@L5
Параметр BVOP формата : 2
Параметр QPel формата : Нет
Параметр GMC формата : Без точки перехода
Параметр матрицы формата : Default (H.263)
Режим смешивания : Сжатый битовый поток
Идентификатор кодека : V_MS/VFW/FOURCC / XVID
Идентификатор кодека/Подсказка : XviD
Продолжительность : 1 ч. 12 м.
Битрейт : 2292 Кбит/сек
Ширина : 720 пикселей
Высота : 544 пикселя
Соотношение сторон : 4:3
Режим частоты кадров : Постоянный
Частота кадров : 25,000 кадров/сек
Цветовое пространство : YUV
Субдискретизация насыщенности : 4:2:0
Битовая глубина : 8 бит
Тип развёртки : Прогрессивная
Метод сжатия : С потерями
Бит/(Пиксели*Кадры) : 0.234
Размер потока : 1,17 Гбайт (90%)
Заголовок : kosmoaelita
Библиотека кодирования : XviD 1.2.1 (UTC 2008-12-04)
Default : Да
Forced : Нет
Аудио
Идентификатор : 2
Формат : AC-3
Формат/Информация : Audio Coding 3
Расширение режима : CM (complete main)
Параметр Endianness формата : Big
Идентификатор кодека : A_AC3
Продолжительность : 1 ч. 12 м.
Вид битрейта : Постоянный
Битрейт : 192 Кбит/сек
Каналы : 2 канала
Расположение каналов : Front: L R
Частота : 48,0 КГц
Частота кадров : 31,250 кадров/сек (1536 spf)
Метод сжатия : С потерями
Размер потока : 100 Мбайт (8%)
Язык : English
Default : Да
Forced : Нет
Текст #1
Идентификатор : 3
Формат : VobSub
Режим смешивания : zlib
Идентификатор кодека : S_VOBSUB
Идентификатор кодека/Информация : Picture based subtitle format used on DVDs
Заголовок : Русский (kosmoaelita-karlivanovich) VobSub - перевод на слух с англ.
Язык : Russian
Default : Да
Forced : Нет
Текст #2
Идентификатор : 4
Формат : VobSub
Режим смешивания : zlib
Идентификатор кодека : S_VOBSUB
Идентификатор кодека/Информация : Picture based subtitle format used on DVDs
Заголовок : Русский (kosmoaelita-karlivanovich) VobSub - перевод на слух с англ.
Язык : Russian
Default : Нет
Forced : Нет
Текст #3
Идентификатор : 5
Формат : UTF-8
Идентификатор кодека : S_TEXT/UTF8
Идентификатор кодека/Информация : UTF-8 Plain Text
Заголовок : Русский (kosmoaelita-karlivanovich) srt - перевод на слух с англ.
Язык : Russian
Default : Нет
Forced : Нет

Пример субтитров

2
00:00:15,673 --> 00:00:18,690
Ирвин Аллен продакшн
представляет
3
00:00:19,003 --> 00:00:21,890
"ПУТЕШЕСТВЕННИКИ ВО ВРЕМЕНИ"
[Time Travellers, 1976г]
4
00:00:25,005 --> 00:00:27,035
СЭМ ГРУМ
5
00:00:27,865 --> 00:00:30,421
ТОМ ХАЛЛИК
6
00:00:30,843 --> 00:00:33,889
ФРАНСИН ЙОРК
и другие
7
00:00:50,502 --> 00:00:52,960
продюсер
ИРВИН АЛЛЕН
8
00:00:59,763 --> 00:01:02,529
режиссёр
АЛЕКСАНДР СИНГЕР
9
00:01:07,354 --> 00:01:10,099
Перевод karlivanovich
для сайта kosmoaelita.com
10
00:01:27,354 --> 00:01:30,099
Мы её повезли сюда, как
только увидели, что с ней.
11
00:01:30,224 --> 00:01:31,379
Что случилось?
12
00:01:31,404 --> 00:01:34,867
Упала в обморок, когда приехала скорая на
Марди-Грас. Я подумал, что лучше сразу сюда.
-----------------
800
01:11:17,356 --> 01:11:19,800
9 октября.
801
01:11:20,822 --> 01:11:26,022
Та самая ночь, она
погибла той же ночью.
802
01:11:26,165 --> 01:11:29,476
Ты не мог её спасти, Клинт.
803
01:11:36,590 --> 01:11:40,057
Я, кажется, просто влюбился
в историю...

Скриншоты








Скринлист



Последний раз редактировалось: kosmoaelita (2017-06-30 03:32), всего редактировалось 4 раз(а)
[Профиль] [ЛС]

croMAG

Пол: Мужской

Стаж: 3 года

Сообщений: 1933

Откуда: Прибалтика

Создавать темы 26-Июн-2017 18:59 (спустя 2 часа 51 минута)

[Цитировать]

Залей на облако плиз.
[Профиль] [ЛС]
Быстрый ответ

Имя:

            
Для отправки сообщений необходимо включить JavaScript
Показать сообщения:    
Ответить на тему

Текущее время: 21-Сен 07:32

Часовой пояс: UTC + 3:30



Вы не можете начинать темы
Вы можете отвечать на сообщения
Вы не можете редактировать свои сообщения
Вы не можете удалять свои сообщения
Вы не можете голосовать в опросах
Вы не можете прикреплять файлы к сообщениям
Вы не можете скачивать файлы