Путешественники во времени / Путешествие во времени / Time Travelers (Alexander Singer / Александр Сингер) [1976, США, фантастика, триллер, приключения, DVDRip] СТ (kosmoaelita-karlivanovich)

Ответить на тему
 
Автор Сообщение

kosmoaelita ®

Пол: Мужской

Стаж: 6 лет 2 месяца

Сообщений: 966

Откуда: Украина

Создавать темы 26-Июн-2017 16:08

[Цитировать]

Путешественники во времени / Путешествие во времени / Time Travelers
Страна: США, 20th Century Fox Television, Irwin Allen Productions
Жанр: фантастика, триллер, приключения
Год выпуска: 1976
Продолжительность: 01:12:52
Перевод: Субтитры kosmoaelita-karlivanovich
Режиссер: Alexander Singer / Александр Сингер
В ролях:
Sam Groom ... Dr. Clint Earnshaw
Tom Hallick ... Jeff Adams
Francine York ... Dr. Helen Sanders
Booth Colman ... Dr. Amos Cummings
Richard Basehart ... Dr. Joshua Henderson (1871)
Trish Stewart ... Jane Henderson (1871)
Walter Brooke ... Dr. Stafford
Patrick Culliton ... Jim Younger (1871)
Dort Clark ... Sharkey (1871)
Jon Cedar ... Pegleg (1871)
Gil Lamb ... Hansom Cabby (1871)
Ed Ness ... Joe - Hospital Attendant (1871)
Kathleen Bracken ... Katherine - Irish girl (1871)
Richard Webb ... Police Sergeant
Victoria Paige Meyerink ... Betty (as Victoria Meyerink)
Fred Borden ... Band Master
Baynes Barron ... Fire Chief Williams (1871)
Albert Cole ... News Vendor (1871)
Rita Lupino ... Prostitute (1871)
Описание: Мир сокрушен эпидемией, и ученые должны найти способ лечения. Исследование показывает, что такая эпидемия была в 1871, и там была найдена вакцина. Но до наших дней, способ её приготовления не сохранился, а погиб в Большом Чикагском Пожаре. И ученые, которые разработали машину времени, предлагают вернуться назад к 1871г. и получить образцы вакцины.
Релиз

Качество: DVDRip
Формат: MKV
Видео: x264, 2024 кбит/с, 700x480@700x528, 23,976 к/с
Аудио 2: Английский (AC3, 2 ch, 192 Кбит/с)
Субтитры : Русские (), английские. испанскте
Работа над релизом:
Релиз kosmoaelita.
Видеоряд найден на твваулт.
Перевод на слух с англ. по заказу kosmoaelita - karlivanovich



Пример русских субтитров

Дополнительно

Also Known As (AKA)
(original title) Time Travelers
Australia Time Travelers
Canada (French title) (complete title) Projetés dans le temps
Canada (English title) Time Travelers
UK Time Travelers
New Zealand (English title) Time Travelers
Poland Czas podrózników
Romania Calatorii timpului
Soviet Union (Russian title) (transliterated ISO-LATIN-1 title) Puteshestviye vo vremeni
Soviet Union (Russian title) Путешествие во времени
Формат изображения: 1.33 : 1
Формат копии: 35 mm
Формат съёмок: 35 mm
Изображение: цветное
Язык: английский

MediaInfo

Общее
Уникальный идентификатор : 199281580971437479037738883999875944507 (0x95EC3C85BE797013A0E26B12D2A7503B)
Полное имя : F:\Time Travelers 1976.x264.DVDRip.kosmoaelita.mkv
Формат : Matroska
Версия формата : Version 4 / Version 2
Размер файла : 1,15 Гбайт
Продолжительность : 1 ч. 12 м.
Общий поток : 2261 Кбит/сек
Название фильма : Путешественики во времени / Time Travelers / 1976 / Релиз kosmoaelita.com
Дата кодирования : UTC 2018-09-30 15:47:42
Программа кодирования : mkvmerge v6.6.0 ('The Edge Of The In Between') built on Dec 1 2013 17:55:00
Библиотека кодирования : libebml v1.3.0 + libmatroska v1.4.1
Attachments : poster.jpg
Видео
Идентификатор : 1
Формат : AVC
Формат/Информация : Advanced Video Codec
Профиль формата : High@L3.1
Параметр CABAC формата : Да
Параметр ReFrames формата : 13 кадров
Идентификатор кодека : V_MPEG4/ISO/AVC
Продолжительность : 1 ч. 12 м.
Битрейт : 2024 Кбит/сек
Ширина : 700 пикселей
Высота : 480 пикселей
Соотношение сторон : 4:3
Режим частоты кадров : Постоянный
Частота кадров : 23,976 (24000/1001) кадра/сек
Цветовое пространство : YUV
Субдискретизация насыщенности : 4:2:0
Битовая глубина : 8 бит
Тип развёртки : Прогрессивная
Бит/(Пиксели*Кадры) : 0.251
Размер потока : 1,03 Гбайт (90%)
Заголовок : http://kosmoaelita.com/viewtopic.php?t=2376
Библиотека кодирования : x264 core 142 r2479kMod dd79a61
Настройки программы : cabac=1 / ref=13 / deblock=1:-3:-3 / analyse=0x3:0x133 / me=umh / subme=10 / psy=1 / fade_compensate=0.00 / psy_rd=1.00:0.10 / mixed_ref=1 / me_range=24 / chroma_me=1 / trellis=2 / 8x8dct=1 / cqm=0 / deadzone=6,6 / fast_pskip=0 / chroma_qp_offset=-3 / threads=12 / lookahead_threads=1 / sliced_threads=0 / nr=0 / decimate=0 / interlaced=0 / bluray_compat=0 / constrained_intra=0 / fgo=0 / bframes=6 / b_pyramid=2 / b_adapt=2 / b_bias=0 / direct=3 / weightb=1 / open_gop=0 / weightp=2 / keyint=250 / keyint_min=23 / scenecut=40 / intra_refresh=0 / rc_lookahead=150 / rc=crf / mbtree=1 / crf=16.0000 / qcomp=0.80 / qpmin=0 / qpmax=69 / qpstep=4 / ip_ratio=1.10 / aq=3:0.60
Язык : English
Default : Да
Forced : Нет
Аудио
Идентификатор : 2
Формат : AC-3
Формат/Информация : Audio Coding 3
Расширение режима : CM (complete main)
Параметр Endianness формата : Big
Идентификатор кодека : A_AC3
Продолжительность : 1 ч. 12 м.
Вид битрейта : Постоянный
Битрейт : 192 Кбит/сек
Каналы : 2 канала
Расположение каналов : Front: L R
Частота : 48,0 КГц
Частота кадров : 31,250 кадров/сек (1536 spf)
Метод сжатия : С потерями
Размер потока : 100 Мбайт (8%)
Язык : English
Default : Да
Forced : Нет
Текст #1
Идентификатор : 3
Формат : VobSub
Режим смешивания : zlib
Идентификатор кодека : S_VOBSUB
Идентификатор кодека/Информация : Picture based subtitle format used on DVDs
Заголовок : Русский (kosmoaelita-karlivanovich) VobSub - перевод на слух с англ.
Язык : Russian
Default : Да
Forced : Нет
Текст #2
Идентификатор : 4
Формат : VobSub
Режим смешивания : zlib
Идентификатор кодека : S_VOBSUB
Идентификатор кодека/Информация : Picture based subtitle format used on DVDs
Заголовок : Русский (kosmoaelita-karlivanovich) VobSub - перевод на слух с англ.
Язык : Russian
Default : Нет
Forced : Нет
Текст #3
Идентификатор : 5
Формат : UTF-8
Идентификатор кодека : S_TEXT/UTF8
Идентификатор кодека/Информация : UTF-8 Plain Text
Заголовок : Русский (kosmoaelita-karlivanovich) srt - перевод на слух с англ.
Язык : Russian
Default : Нет
Forced : Нет
Текст #4
Идентификатор : 6
Формат : UTF-8
Идентификатор кодека : S_TEXT/UTF8
Идентификатор кодека/Информация : UTF-8 Plain Text
Язык : English
Default : Нет
Forced : Нет
Текст #5
Идентификатор : 7
Формат : UTF-8
Идентификатор кодека : S_TEXT/UTF8
Идентификатор кодека/Информация : UTF-8 Plain Text
Язык : Spanish
Default : Нет
Forced : Нет
Меню
00:00:00.000 : en:Main Titles
00:01:03.200 : en:Mardis Gras Emergency
00:03:46.400 : en:Jeff Adams
00:06:43.034 : en:Henderson's Cure
00:09:37.735 : en:Back 100 Years?
00:12:33.569 : en:The Risks
00:15:29.069 : en:Journey to the Past
00:16:36.603 : en:Chicago, 1871
00:20:38.903 : en:Henderson's Clinic
00:26:28.637 : en:I Just Don't Know
00:27:58.404 : en:All Through the Night
00:33:33.772 : en:The Comparison Sample
00:38:11.772 : en:Fugitive
00:39:53.139 : en:Woods Fever
00:43:33.606 : en:Fire!
00:47:20.940 : en:No Hope
00:53:08.007 : en:Caught in the Act
00:56:38.074 : en:Secret in the Wine
01:01:51.775 : en:Race Against Time
01:04:16.942 : en:Earnshaw's Choice
01:06:18.109 : en:The Hard Way Back
01:08:03.176 : en:The Cure
01:10:02.643 : en:In Love with History
01:12:00.810 : en:End Titles

Пример субтитров

2
00:00:15,673 --> 00:00:18,690
Ирвин Аллен продакшн
представляет
3
00:00:19,003 --> 00:00:21,890
"ПУТЕШЕСТВЕННИКИ ВО ВРЕМЕНИ"
[Time Travellers, 1976г]
4
00:00:25,005 --> 00:00:27,035
СЭМ ГРУМ
5
00:00:27,865 --> 00:00:30,421
ТОМ ХАЛЛИК
6
00:00:30,843 --> 00:00:33,889
ФРАНСИН ЙОРК
и другие
7
00:00:50,502 --> 00:00:52,960
продюсер
ИРВИН АЛЛЕН
8
00:00:59,763 --> 00:01:02,529
режиссёр
АЛЕКСАНДР СИНГЕР
9
00:01:07,354 --> 00:01:10,099
Перевод karlivanovich
для сайта kosmoaelita.com
10
00:01:27,354 --> 00:01:30,099
Мы её повезли сюда, как
только увидели, что с ней.
11
00:01:30,224 --> 00:01:31,379
Что случилось?
12
00:01:31,404 --> 00:01:34,867
Упала в обморок, когда приехала скорая на
Марди-Грас. Я подумал, что лучше сразу сюда.
-----------------
800
01:11:17,356 --> 01:11:19,800
9 октября.
801
01:11:20,822 --> 01:11:26,022
Та самая ночь, она
погибла той же ночью.
802
01:11:26,165 --> 01:11:29,476
Ты не мог её спасти, Клинт.
803
01:11:36,590 --> 01:11:40,057
Я, кажется, просто влюбился
в историю...

Скриншоты








Скринлист



Последний раз редактировалось: kosmoaelita (2017-06-30 03:32), всего редактировалось 4 раз(а)
[Профиль] [ЛС]

kosmoaelita2

Пол: Мужской

Стаж: 6 лет 1 месяц

Сообщений: 438

Создавать темы 30-Сен-2018 19:28 (спустя 1 год 3 месяца)

[Цитировать]

Видеоряд заменен на более качественный
[Профиль] [ЛС]
Быстрый ответ

Имя:

            
Для отправки сообщений необходимо включить JavaScript
Показать сообщения:    
Ответить на тему

Текущее время: 14-Ноя 06:04

Часовой пояс: UTC + 3:30



Вы не можете начинать темы
Вы можете отвечать на сообщения
Вы не можете редактировать свои сообщения
Вы не можете удалять свои сообщения
Вы не можете голосовать в опросах
Вы не можете прикреплять файлы к сообщениям
Вы не можете скачивать файлы