Кровососы из далекого космоса Кровопийцы из космоса / Blood Suckers from Outer Space / Bloodsuckers from Outer Space (Глен Кобёрн) [1984, США, фантастика, черная комедия, DVDRip] АО (Трамвай фильм), АО (Ю.Живов)

Reply to topic
DL-List and Torrent activity
Size:  1.58 GB   |    Registered:  3 years 3 months   |    Completed:  0 times

Seeder not seen: 1 year 4 months

 
   
 
 
 
Author Message

Трамвай-фильм ®

Gender: Male

Longevity: 6 years 1 month

Posts: 1863

Location: Россия

Post 10-Jun-2017 16:03

[Quote]

Кровососы из далекого космоса / Кровопийцы из космоса / Blood Suckers from Outer Space / Bloodsuckers from Outer Space
Страна: США
Жанр: фантастика, черная комедия
Год выпуска: 1984
Продолжительность: 01:21:59 / 01:21:33
Перевод 1: Авторский (одноголосый) Трамвай фильм
Перевод 2: Авторский (одноголосый) Ю.Живов
Режиссер: Глен Кобёрн
В ролях: Роберт Брэдин, Джон Бригман, Глен Коберн, Лора Элис, Рик Гарлингтон и др.
Описание: Гротескно-трэшовый фильм, снятый группой единомышленников о таинственной космической силе превращающий американскую деревенщину в кровососущих зомби.
Доп. информация: Фильм высмеивает и обличает пороки американского общества 1980-х, от системы государственный власти до непотребства обывателей.

Качество: DVDRip
Формат: MKV
Видео: xviD, 2137 кбит/с, 640x480, 23.976 к/с
Аудио 1: Русский АО (Живов) (AC3, 2 ch, 192 Кбит/с)
Аудио 2: Русский АО (Трамвай-фильм)(AC3, 2 ch, 192 Кбит/с)
Аудио 3: Английский (AC3, 2 ch, 192 Кбит/с)
==================================
Качество: BDRip-720p
Формат: MKV
Видео: x24, 8400 кбит/с, 1280x720, 23.976 к/с
Аудио 1: Русский АО (Живов) (AC3, 2 ch, 192 Кбит/с)
Аудио 2: Русский АО (Трамвай-фильм)(AC3, 2 ch, 192 Кбит/с)
Аудио 3: Английский (AC3, 2 ch, 192 Кбит/с)
Субтитры : Английские
Работа над релизом:
DVDRip vs. BDRip
https://www.blu-ray.com/movies/Blood-Suckers-from-O...-Blu-ray/133467/
[Bloodsuckers from Outer Space / Blu-ray + DVD Vinegar Syndrome | 1989 | 82 min | Not rated | May 29, 2018]


MediaInfo 1

Общее
Уникальный идентификатор : 178555764235271061380900385734964206752 (0x865496DCE9BD81F69628113C20EEDCA0)
Полное имя : F:\Blood Suckers from Outer Space 1984.x264.BDRip.720p.2xRus.kosmoaelita.mkv
Формат : Matroska
Версия формата : Version 4 / Version 2
Размер файла : 5,18 Гбайт
Продолжительность : 1 ч. 21 м.
Общий поток : 9045 Кбит/сек
Название фильма : Кровососы из далекого космоса / Кровопийцы из космоса / Blood Suckers from Outer Space / Bloodsuckers from Outer Space / 1984 / kosmoaelita
Дата кодирования : UTC 2018-10-14 23:34:26
Программа кодирования : mkvmerge v6.6.0 ('The Edge Of The In Between') built on Dec 1 2013 17:55:00
Библиотека кодирования : libebml v1.3.0 + libmatroska v1.4.1
Attachments : POSTER.jpg
Видео
Идентификатор : 1
Формат : AVC
Формат/Информация : Advanced Video Codec
Профиль формата : High@L4.1
Параметр CABAC формата : Да
Параметр ReFrames формата : 9 кадров
Идентификатор кодека : V_MPEG4/ISO/AVC
Продолжительность : 1 ч. 21 м.
Битрейт : 8400 Кбит/сек
Ширина : 1280 пикселей
Высота : 720 пикселей
Соотношение сторон : 16:9
Режим частоты кадров : Постоянный
Частота кадров : 23,976 (24000/1001) кадра/сек
Цветовое пространство : YUV
Субдискретизация насыщенности : 4:2:0
Битовая глубина : 8 бит
Тип развёртки : Прогрессивная
Бит/(Пиксели*Кадры) : 0.380
Размер потока : 4,71 Гбайт (91%)
Заголовок : Bloodsuckers.from.Outer.Space.1984.BDRip.720p.x264-MM
Библиотека кодирования : x264 core 146 r2538 121396c
Настройки программы : cabac=1 / ref=9 / deblock=1:-3:-3 / analyse=0x3:0x113 / me=umh / subme=11 / psy=1 / psy_rd=1.00:0.00 / mixed_ref=1 / me_range=48 / chroma_me=1 / trellis=2 / 8x8dct=1 / cqm=0 / deadzone=21,11 / fast_pskip=0 / chroma_qp_offset=-2 / threads=12 / lookahead_threads=3 / sliced_threads=0 / nr=0 / decimate=0 / interlaced=0 / bluray_compat=0 / constrained_intra=0 / bframes=12 / b_pyramid=2 / b_adapt=2 / b_bias=0 / direct=3 / weightb=1 / open_gop=1 / weightp=2 / keyint=250 / keyint_min=23 / scenecut=40 / intra_refresh=0 / rc_lookahead=60 / rc=2pass / mbtree=0 / bitrate=8400 / ratetol=1.0 / qcomp=0.60 / qpmin=0 / qpmax=69 / qpstep=4 / cplxblur=20.0 / qblur=0.5 / vbv_maxrate=50000 / vbv_bufsize=62500 / nal_hrd=none / filler=0 / ip_ratio=1.40 / pb_ratio=1.30 / aq=1:1.10
Язык : English
Default : Да
Forced : Нет
Аудио #1
Идентификатор : 2
Формат : AC-3
Формат/Информация : Audio Coding 3
Расширение режима : CM (complete main)
Параметр Endianness формата : Big
Идентификатор кодека : A_AC3
Продолжительность : 1 ч. 21 м.
Вид битрейта : Постоянный
Битрейт : 192 Кбит/сек
Каналы : 2 канала
Расположение каналов : Front: L R
Частота : 48,0 КГц
Частота кадров : 31,250 кадров/сек (1536 spf)
Метод сжатия : С потерями
Размер потока : 113 Мбайт (2%)
Заголовок : Русский АО (Ю.Живов)
Язык : Russian
Default : Да
Forced : Нет
Аудио #2
Идентификатор : 3
Формат : AC-3
Формат/Информация : Audio Coding 3
Расширение режима : CM (complete main)
Параметр Endianness формата : Big
Идентификатор кодека : A_AC3
Продолжительность : 1 ч. 21 м.
Вид битрейта : Постоянный
Битрейт : 192 Кбит/сек
Каналы : 2 канала
Расположение каналов : Front: L R
Частота : 48,0 КГц
Частота кадров : 31,250 кадров/сек (1536 spf)
Метод сжатия : С потерями
Размер потока : 113 Мбайт (2%)
Заголовок : Русский АО (Трамвай-фильм)
Язык : Russian
Default : Нет
Forced : Нет
Аудио #3
Идентификатор : 4
Формат : AC-3
Формат/Информация : Audio Coding 3
Расширение режима : CM (complete main)
Параметр Endianness формата : Big
Идентификатор кодека : A_AC3
Продолжительность : 1 ч. 21 м.
Вид битрейта : Постоянный
Битрейт : 256 Кбит/сек
Каналы : 1 канал
Расположение каналов : Front: C
Частота : 48,0 КГц
Частота кадров : 31,250 кадров/сек (1536 spf)
Метод сжатия : С потерями
Размер потока : 150 Мбайт (3%)
Заголовок : Original
Язык : English
Default : Нет
Forced : Нет
Текст
Идентификатор : 5
Формат : PGS
Режим смешивания : zlib
Идентификатор кодека : S_HDMV/PGS
Идентификатор кодека/Информация : Picture based subtitle format used on BDs/HD-DVDs
Язык : English
Default : Да
Forced : Нет
Меню
00:00:00.000 : en:Chapter 1
00:20:58.757 : en:Chapter 2
00:39:47.385 : en:Chapter 3
01:01:38.194 : en:Chapter 4

MediaInfo 2

Общее
Уникальный идентификатор : 191234775141899372403956157891316986149 (0x8FDE7A5D4034D52FAE4A8125330EB125)
Полное имя : H:\НА ПЕРЕЗАПИСЬ В АРХИВ\Blood Suckers\Blood Suckers from Outer Space 1984.XviD.DVDRip.2xRus.kosmoaelita.mkv
Формат : Matroska
Версия формата : Version 4 / Version 2
Размер файла : 1,58 Гбайт
Продолжительность : 1 ч. 21 м.
Общий поток : 2768 Кбит/сек
Название фильма : Кровососы из далекого космоса / Кровопийцы из космоса / Blood Suckers from Outer Space / Bloodsuckers from Outer Space / 1984 / kosmoaelita
Дата кодирования : UTC 2017-06-19 21:56:09
Программа кодирования : mkvmerge v6.6.0 ('The Edge Of The In Between') built on Dec 1 2013 17:55:00
Библиотека кодирования : libebml v1.3.0 + libmatroska v1.4.1
Attachments : POSTER.jpg
Видео
Идентификатор : 1
Формат : MPEG-4 Visual
Профиль формата : Advanced Simple@L5
Параметр BVOP формата : 2
Параметр QPel формата : Нет
Параметр GMC формата : Без точки перехода
Параметр матрицы формата : Выборочная
Идентификатор кодека : V_MS/VFW/FOURCC / XVID
Идентификатор кодека/Подсказка : XviD
Продолжительность : 1 ч. 21 м.
Битрейт : 2137 Кбит/сек
Ширина : 640 пикселей
Высота : 480 пикселей
Соотношение сторон : 4:3
Режим частоты кадров : Постоянный
Частота кадров : 23,976 (24000/1001) кадра/сек
Цветовое пространство : YUV
Субдискретизация насыщенности : 4:2:0
Битовая глубина : 8 бит
Тип развёртки : Прогрессивная
Метод сжатия : С потерями
Бит/(Пиксели*Кадры) : 0.290
Размер потока : 1,22 Гбайт (77%)
Заголовок : kosmoaelita
Библиотека кодирования : XviD 73
Default : Да
Forced : Нет
Аудио #1
Идентификатор : 2
Формат : AC-3
Формат/Информация : Audio Coding 3
Расширение режима : CM (complete main)
Параметр Endianness формата : Big
Идентификатор кодека : A_AC3
Продолжительность : 1 ч. 21 м.
Вид битрейта : Постоянный
Битрейт : 192 Кбит/сек
Каналы : 2 канала
Расположение каналов : Front: L R
Частота : 48,0 КГц
Частота кадров : 31,250 кадров/сек (1536 spf)
Метод сжатия : С потерями
Размер потока : 112 Мбайт (7%)
Заголовок : Русский АО (Ю.Живов)
Язык : Russian
Default : Да
Forced : Нет
Аудио #2
Идентификатор : 3
Формат : AC-3
Формат/Информация : Audio Coding 3
Расширение режима : CM (complete main)
Параметр Endianness формата : Big
Идентификатор кодека : A_AC3
Продолжительность : 1 ч. 21 м.
Вид битрейта : Постоянный
Битрейт : 192 Кбит/сек
Каналы : 2 канала
Расположение каналов : Front: L R
Частота : 48,0 КГц
Частота кадров : 31,250 кадров/сек (1536 spf)
Метод сжатия : С потерями
Размер потока : 112 Мбайт (7%)
Заголовок : Русский АО (Трамвай-фильм)
Язык : Russian
Default : Нет
Forced : Нет
Аудио #3
Идентификатор : 4
Формат : AC-3
Формат/Информация : Audio Coding 3
Расширение режима : CM (complete main)
Параметр Endianness формата : Big
Идентификатор кодека : A_AC3
Продолжительность : 1 ч. 21 м.
Вид битрейта : Постоянный
Битрейт : 192 Кбит/сек
Каналы : 2 канала
Расположение каналов : Front: L R
Частота : 48,0 КГц
Частота кадров : 31,250 кадров/сек (1536 spf)
Метод сжатия : С потерями
Размер потока : 112 Мбайт (7%)
Язык : English
Default : Нет
Forced : Нет

Скриншоты




Скринлист 1

[IMG] [/IMG]

Скринлист 2

cd Рип дополнительно залит на ОБЛАКО cd2
Blood Suckers from Outer Space 1984.XviD.DVDRip.2xRus.kosmoaelita.mkv.torrent
Torrent: Registered [ 2017-06-20 01:03 ]

Download .torrent

Download

63 KB

Status: checked
Completed: 0 times
Size: 1.58 GB
 
[Profile] [PM]

CROM@G

Gender: Male

Longevity: 5 years

Posts: 3382

Location: Прибалтика

Post 10-Jun-2017 16:49 (after 45 minutes)

[Quote]

Аяаяаяаяаяй Столько времени и впустую Вот говорили тебе скажи название фильма
https://rutracker.org/forum/viewtopic.php?t=5401622
[Profile] [PM]

Трамвай-фильм ®

Gender: Male

Longevity: 6 years 1 month

Posts: 1863

Location: Россия

Post 10-Jun-2017 17:13 (after 24 minutes)

[Quote]

19554Аяаяаяаяаяй Столько времени и впустую Вот говорили тебе скажи название фильма
https://rutracker.org/forum/viewtopic.php?t=5401622
Интересно, мой поиск ничего не дал. Хотя искал и нигде не нашел этого фильма с переводом. Ну и хрен, все равно за 4 дня сделал.
Да и дата релиза смотрю, всего 29 дней назад, видно долго тянул
[Profile] [PM]

CROM@G

Gender: Male

Longevity: 5 years

Posts: 3382

Location: Прибалтика

Post 11-Jun-2017 08:36 (after 15 hours)

[Quote]

Ага а за 4 дня можно серию соорудить
[Profile] [PM]

Трамвай-фильм ®

Gender: Male

Longevity: 6 years 1 month

Posts: 1863

Location: Россия

Post 11-Jun-2017 11:35 (after 2 hours 59 minutes)

[Quote]

19557Ага а за 4 дня можно серию соорудить
Не всегда, первая серия "Просчет" давалась мне очень тяжело. Много научных разговоров и наречие какое-то мерзкое. Я с ней дней 7 сидел, ну ничего на сл. выходные постараюсь дать новую серия Сказок...
[Profile] [PM]

kosmoaelita

Gender: Male

Longevity: 8 years

Posts: 1649

Post 20-Jun-2017 01:04 (after 8 days)

[Quote]

Добавлен русский перевод от Ю.Живова.
[Profile] [PM]

Трамвай-фильм ®

Gender: Male

Longevity: 6 years 1 month

Posts: 1863

Location: Россия

Post 20-Jun-2017 16:34 (after 15 hours)

[Quote]

19604Добавлен русский перевод от Ю.Живова.
мне было бы интересно сравнить.
[Profile] [PM]

Трамвай-фильм ®

Gender: Male

Longevity: 6 years 1 month

Posts: 1863

Location: Россия

Post 20-Jun-2017 17:30 (after 55 minutes)

[Quote]

Скачал посмотрел. Хм, я - видимо не совсем точно понял момент с первым исследованием док. Пейза, Живов предложил другой вариант, так же не знал, что "элементарное воздействие" это охлаждение. В остальном почти все сходится. Живов опускает мелкие детали в тексте, видимо синхронит.
[Profile] [PM]

Guest

Gender: Unknown

Longevity: 50 years

Post 15-Oct-2018 02:39 (after 1 year 3 months)

[Quote]

На ОБЛАКО залита версия BDRip-720p. Без реставрации и обрезана сверху и снизу
DVDRip vs. BDRip

[Profile] [PM]
Display posts:    
Reply to topic

Current time is: 28-Sep 06:31

All times are UTC + 3



You cannot post new topics in this forum
You cannot reply to topics in this forum
You cannot edit your posts in this forum
You cannot delete your posts in this forum
You cannot vote in polls in this forum
You cannot attach files in this forum
You can download files in this forum