Для этого нельзя быть слишком молодым / Никогда не рано умирать / Never Too Young To Die (Джил Беттман / Gil Bettman) [1986, США, Боевик, Постапокалипсис (?), BDRip-720p] (АО : Леонид Володарский) (АО : Вартан Дохалов) (АО : Надежда Дружинина) (Sub Eng)

Reply to topic
DL-List and Torrent activity
Size:  5.65 GB   |    Registered:  3 years 4 months   |    Completed:  1 time

Seeder not seen: 1 year 10 months

 
   
 
 
 
Author Message

AlexNT60 ®

Gender: Male

Longevity: 7 years 7 months

Posts: 137

Location: СПб

Post 04-May-2017 19:51

[Quote]

Для этого нельзя быть слишком молодым / Никогда не рано умирать / Never Too Young To Die
Страна: США
Жанр: Боевик, Постапокалипсис (?)
Год выпуска: 1986
Продолжительность: 01:36:40
Перевод: Авторский (одноголосый) Леонид Володарский
Перевод 2: Авторский (одноголосый) Вартан Дохалов
Перевод 3: Авторский (одноголосый) Надежда Дружинина
Cубтитры: английские
Режиссер: Джил Беттман / Gil Bettman
В ролях: Джон Стамос, Вэнити, Джин Симмонс, Джордж Лэзенби, Питер Квон, Эд Брок, Джон Андерсон, Роберт Инглунд, Тара Букман
Описание: Зрелищный молодежный боевик о парне, который пытается отомстить за смерть своего отца. Отчаянные приключения в стиле "Безумного Макса", остроумные шутки, грохот рок-музыки, экстравагантный негодяй-гермафродит в исполнении рок-звезды Джина Симмонса... Яркое и веселое зрелище доставит немало приятных минут поклонникам жанра.
Доп. информация: Вообще-то к фантастике данный фильм иожно отнести только с ооочень большой натяжкой. При том, большинство анталогий, помещают его в раздел ПА.
Поэтому и рискнул...
Качество видео: BDRip-720p
Формат видео: MKV
Видео: x264, 7378 кбит/с, 1280x720, 23.976 к/с
Аудио: Русский AVO (Л.Володарский) (AC3, 2 ch, 192 Кбит/с)
Аудио 2: Русский AVO (В.Дохалов) (AC3, 2 ch, 192 Кбит/с)
Аудио 3: Русский AVO (Н.Дружинина) (AC3, 2 ch, 192 Кбит/с)
Аудио 4: Английский (AC3, 2 ch, 192 Кбит/с)
Аудио 5: Английский комментарии (AC3, 2 ch, 192 Кбит/с)
Формат субтитров: softsub (SRT)

MediaInfo

General
Unique ID : 210543169416293611860515505401132342848 (0x9E6523B36BE1A1CF864188238B19DE40)
Complete name : F:\Torrent\Never.Too.Young.To.Die.1986.720p.BluRay.x264.mkv
Format : Matroska
Format version : Version 4 / Version 2
File size : 5.65 GiB
Duration : 1h 36mn
Overall bit rate : 8 362 Kbps
Movie name : Never Too Young To Die (1986)
Encoded date : UTC 2017-05-03 20:25:50
Writing application : mkvmerge v11.0.0 ('Alive') 64bit
Writing library : libebml v1.3.4 + libmatroska v1.4.5
Attachements : Cover.png / Cover.png
DURATION : 01:36:33.079000000
NUMBER_OF_FRAMES : 2828
NUMBER_OF_BYTES : 14633666
_STATISTICS_WRITING_APP : mkvmerge v11.0.0 ('Alive') 64bit
_STATISTICS_WRITING_DATE_UTC : 2017-05-03 20:25:50
_STATISTICS_TAGS : BPS DURATION NUMBER_OF_FRAMES NUMBER_OF_BYTES
Video
ID : 1
Format : AVC
Format/Info : Advanced Video Codec
Format profile : High@L4.1
Format settings, CABAC : Yes
Format settings, ReFrames : 5 frames
Codec ID : V_MPEG4/ISO/AVC
Duration : 1h 36mn
Bit rate : 7 378 Kbps
Width : 1 280 pixels
Height : 696 pixels
Display aspect ratio : 1.85:1
Frame rate mode : Constant
Frame rate : 23.976 fps
Color space : YUV
Chroma subsampling : 4:2:0
Bit depth : 8 bits
Scan type : Progressive
Bits/(Pixel*Frame) : 0.345
Stream size : 4.89 GiB (87%)
Writing library : x264 core 148 r2762 90a61ec
Encoding settings : cabac=1 / ref=5 / deblock=1:-3:-3 / analyse=0x3:0x113 / me=umh / subme=8 / psy=1 / psy_rd=1.00:0.00 / mixed_ref=1 / me_range=16 / chroma_me=1 / trellis=1 / 8x8dct=1 / cqm=0 / deadzone=21,11 / fast_pskip=1 / chroma_qp_offset=-2 / threads=12 / lookahead_threads=2 / sliced_threads=0 / nr=0 / decimate=1 / interlaced=0 / bluray_compat=0 / constrained_intra=0 / bframes=3 / b_pyramid=2 / b_adapt=2 / b_bias=0 / direct=3 / weightb=1 / open_gop=0 / weightp=2 / keyint=240 / keyint_min=24 / scenecut=40 / intra_refresh=0 / rc_lookahead=50 / rc=2pass / mbtree=1 / bitrate=7378 / ratetol=1.0 / qcomp=0.60 / qpmin=0 / qpmax=69 / qpstep=4 / cplxblur=20.0 / qblur=0.5 / vbv_maxrate=62500 / vbv_bufsize=78125 / nal_hrd=none / filler=0 / ip_ratio=1.40 / aq=1:1.00
Language : English
Default : Yes
Forced : No
DURATION : 01:36:39.836000000
NUMBER_OF_FRAMES : 139057
NUMBER_OF_BYTES : 5347623707
_STATISTICS_WRITING_APP : mkvmerge v11.0.0 ('Alive') 64bit
_STATISTICS_WRITING_DATE_UTC : 2017-05-03 20:25:50
_STATISTICS_TAGS : BPS DURATION NUMBER_OF_FRAMES NUMBER_OF_BYTES
Audio #1
ID : 2
Format : AC-3
Format/Info : Audio Coding 3
Mode extension : CM (complete main)
Format settings, Endianness : Big
Codec ID : A_AC3
Duration : 1h 36mn
Bit rate mode : Constant
Bit rate : 192 Kbps
Channel(s) : 2 channels
Channel positions : Front: L R
Sampling rate : 48.0 KHz
Bit depth : 16 bits
Compression mode : Lossy
Stream size : 133 MiB (2%)
Title : AVO (Л.Володарский)
Language : Russian
Default : Yes
Forced : No
Audio #2
ID : 3
Format : AC-3
Format/Info : Audio Coding 3
Mode extension : CM (complete main)
Format settings, Endianness : Big
Codec ID : A_AC3
Duration : 1h 36mn
Bit rate mode : Constant
Bit rate : 192 Kbps
Channel(s) : 2 channels
Channel positions : Front: L R
Sampling rate : 48.0 KHz
Bit depth : 16 bits
Compression mode : Lossy
Stream size : 133 MiB (2%)
Title : AVO (В.Дохалов)
Language : Russian
Default : No
Forced : No
Audio #3
ID : 4
Format : AC-3
Format/Info : Audio Coding 3
Mode extension : CM (complete main)
Format settings, Endianness : Big
Codec ID : A_AC3
Duration : 1h 36mn
Bit rate mode : Constant
Bit rate : 192 Kbps
Channel(s) : 2 channels
Channel positions : Front: L R
Sampling rate : 48.0 KHz
Bit depth : 16 bits
Compression mode : Lossy
Stream size : 133 MiB (2%)
Title : AVO (Н.Дружинина)
Language : Russian
Default : No
Forced : No
Audio #4
ID : 5
Format : AC-3
Format/Info : Audio Coding 3
Mode extension : CM (complete main)
Format settings, Endianness : Big
Codec ID : A_AC3
Duration : 1h 36mn
Bit rate mode : Constant
Bit rate : 192 Kbps
Channel(s) : 2 channels
Channel positions : Front: L R
Sampling rate : 48.0 KHz
Bit depth : 16 bits
Compression mode : Lossy
Stream size : 133 MiB (2%)
Language : English
Default : No
Forced : No
Audio #5
ID : 6
Format : AC-3
Format/Info : Audio Coding 3
Mode extension : CM (complete main)
Format settings, Endianness : Big
Codec ID : A_AC3
Duration : 1h 36mn
Bit rate mode : Constant
Bit rate : 192 Kbps
Channel(s) : 2 channels
Channel positions : Front: L R
Sampling rate : 48.0 KHz
Bit depth : 16 bits
Compression mode : Lossy
Stream size : 133 MiB (2%)
Title : Comment
Language : English
Default : No
Forced : No
Text
ID : 7
Format : PGS
Muxing mode : zlib
Codec ID : S_HDMV/PGS
Codec ID/Info : The same subtitle format used on BDs/HD-DVDs
Language : English
Default : Yes
Forced : No

Скриншоты

[/URL]

[URL=http://radikal.ru]





Скринлист

cd Рип дополнительно залит на ОБЛАКО cd2
Never.Too.Young.To.Die.1986.720p.BluRay.x264.mkv.torrent
Torrent: Registered [ 2017-05-04 19:51 ]

Download .torrent

Download

28 KB

Status: checked
Completed: 1 times
Size: 5.65 GB
 
[Profile] [PM]

Трамвай-фильм

Gender: Male

Longevity: 6 years 1 month

Posts: 1863

Location: Россия

Post 05-May-2017 19:30 (after 23 hours)

[Quote]

Кажется этот фильм 100 лет назад показывали на кассете по местному каналы
[Profile] [PM]
Display posts:    
Reply to topic

Current time is: 28-Sep 04:12

All times are UTC + 3



You cannot post new topics in this forum
You cannot reply to topics in this forum
You cannot edit your posts in this forum
You cannot delete your posts in this forum
You cannot vote in polls in this forum
You cannot attach files in this forum
You can download files in this forum