Клангеры s01e01-13x13 (мультсериал) / The Clangers (Оливер Постгейт / Oliver Postgate) [1969, Великобритания, Фантастика, DVDRip] ЛО (den904) + СТ (karlivanovich)

Reply to topic
 
Author Message

kosmoaelita ®

Gender: Male

Longevity: 8 years 7 months

Posts: 1729

Post 09-Apr-2017 03:35

[Quote]

Клангеры / The Clangers
Страна: Великобритания
Жанр: Фантастика, мульт.
Год выпуска: 1969 - 1970
Продолжительность: 13 x ~ 00:09:30
Перевод: Русский (любительский одноголосый) den904
Субтитры: karlivanovich перевод на слух по заказу kosmoaelita
Cубтитры: русские
Режиссер: Оливер Постгейт / Oliver Postgate
В ролях: Оливер Постгейт
Описание: В глубоком космосе на на холодной планете обитает местная живность: клангеры, дракончики, фроглеты.

Список серий первого сезона:
1.
2
3
4
5
6
7
8
9
10
11
12
13
Качество видео: DVDRip
Формат видео: MKV
Видео: XviD, 472x352, 4:3, 25.000 fps, 1 274 Kbps
Аудио 1: Русский, AC3, 2 channels, 48.0 KHz, 192 Kbps
Аудио 2: Английский, MP3, 2 channels, 48.0 KHz, 192 Kbps
Формат субтитров: prerendered (IDX+SUB)
Доп. информация о субтитрах: karlivanovich
Работа над релизом:
Релиз kosmoaelita
Перевод на слух санглийского - karlivanovich
Спонсор русского перевода - kay1979
Рипы найдены на tv-vault
Озвучка - den904
Спонсор озвучки - pompilius



https://en.wikipedia.org/wiki/Clangers
Трейлер

MediaInfo

General
Unique ID                      : 286973422380301400958700199060479986834 (0xD7E5121C0D807441198B0BA45F30CC92)
Complete name                  : Clangers s01e01 Flying 1969.XviD.DVDRip.Rus-Eng.kosmoaelita.mkv
Format                         : Matroska
Format version                 : Version 4
File size                      : 73.2 MiB
Duration                       : 9 min 29 s
Overall bit rate               : 1 078 kb/s
Encoded date                   : UTC 2021-03-31 12:42:08
Writing application            : mkvmerge v35.0.0 ('All The Love In The World') 64-bit
Writing library                : libebml v1.3.9 + libmatroska v1.5.2
Video
ID                             : 1
Format                         : MPEG-4 Visual
Format profile                 : Advanced Simple@L5
Format settings                : BVOP2
Format settings, BVOP          : 2
Format settings, QPel          : No
Format settings, GMC           : No warppoints
Format settings, Matrix        : Default (H.263)
Muxing mode                    : Packed bitstream
Codec ID                       : V_MS/VFW/FOURCC / XVID
Codec ID/Hint                  : XviD
Duration                       : 9 min 29 s
Bit rate                       : 692 kb/s
Width                          : 472 pixels
Height                         : 352 pixels
Display aspect ratio           : 4:3
Frame rate mode                : Constant
Frame rate                     : 25.000 FPS
Color space                    : YUV
Chroma subsampling             : 4:2:0
Bit depth                      : 8 bits
Scan type                      : Progressive
Compression mode               : Lossy
Bits/(Pixel*Frame)             : 0.167
Stream size                    : 47.0 MiB (64%)
Title                          : kosmoaelita
Writing library                : XviD 1.2.0.dev45 (UTC 2006-07-10)
Language                       : English
Default                        : Yes
Forced                         : No
Audio #1
ID                             : 2
Format                         : AC-3
Format/Info                    : Audio Coding 3
Commercial name                : Dolby Digital
Codec ID                       : A_AC3
Duration                       : 9 min 29 s
Bit rate mode                  : Constant
Bit rate                       : 192 kb/s
Channel(s)                     : 2 channels
Channel layout                 : L R
Sampling rate                  : 48.0 kHz
Frame rate                     : 31.250 FPS (1536 SPF)
Compression mode               : Lossy
Stream size                    : 13.0 MiB (18%)
Title                          : Русский ЛО (den904)
Language                       : Russian
Service kind                   : Complete Main
Default                        : Yes
Forced                         : No
Audio #2
ID                             : 3
Format                         : MPEG Audio
Format version                 : Version 1
Format profile                 : Layer 3
Codec ID                       : A_MPEG/L3
Codec ID/Hint                  : MP3
Duration                       : 9 min 28 s
Bit rate mode                  : Constant
Bit rate                       : 192 kb/s
Channel(s)                     : 2 channels
Sampling rate                  : 44.1 kHz
Frame rate                     : 38.281 FPS (1152 SPF)
Compression mode               : Lossy
Delay relative to video        : 26 ms
Stream size                    : 13.0 MiB (18%)
Language                       : English
Default                        : No
Forced                         : No
Text
ID                             : 4
Format                         : UTF-8
Codec ID                       : S_TEXT/UTF8
Codec ID/Info                  : UTF-8 Plain Text
Duration                       : 9 min 24 s
Bit rate                       : 52 b/s
Count of elements              : 60
Stream size                    : 3.62 KiB (0%)
Title                          : Русские (karlivanovich)
Language                       : Russian
Default                        : No
Forced                         : No

Скриншот c названием фильма

Скриншоты



Скринлист

[Profile] [PM]

Darth_47

Gender: Male

Longevity: 1 year 11 months

Posts: 848

Post 31-Mar-2021 16:25 (after 3 years 11 months)

[Quote]

Раздача обновлена. Добавлена озвучка от den904.
[Profile] [PM]

CROMAG

Gender: Male

Longevity: 5 years 7 months

Posts: 3645

Location: Прибалтика

Post 01-Apr-2021 10:25 (after 17 hours)

[Quote]

Спонсор озвучки pompilius
[Profile] [PM]
Display posts:    
Reply to topic

Current time is: 15-Apr 19:12

All times are UTC + 3



You cannot post new topics in this forum
You cannot reply to topics in this forum
You cannot edit your posts in this forum
You cannot delete your posts in this forum
You cannot vote in polls in this forum
You cannot attach files in this forum
You cannot download files in this forum