Клангеры s01e01-13x13 (мультсериал) / The Clangers (Оливер Постгейт / Oliver Postgate) [1969, Великобритания, Фантастика, DVDRip] (СТ : karlivanovich)

Reply to topic
 
Author Message

kosmoaelita ®

Gender: Male

Longevity: 6 years 11 months

Posts: 965

Location: Украина

Post 09-Apr-2017 03:35

[Quote]

Клангеры / The Clangers
Страна: Великобритания
Жанр: Фантастика, мульт.
Год выпуска: 1969 - 1970
Продолжительность: 13 x ~ 00:09:30
Перевод: Субтитры karlivanovich перевод на слух по заказу kosmoaelita
Cубтитры: русские
Режиссер: Оливер Постгейт / Oliver Postgate
В ролях: Оливер Постгейт
Описание: В глубоком космосе на на холодной планете обитает местная живность: клангеры, дракончики, фроглеты.

Список серий первого сезона:
1.
2
3
4
5
6
7
8
9
10
11
12
13
Качество видео: DVDRip
Формат видео: MKV
Видео: XviD, 472x352, 4:3, 25.000 fps, 1 274 Kbps
Аудио: Английский, MP3, 2 channels, 48.0 KHz, 192 Kbps
Формат субтитров: prerendered (IDX+SUB)
Доп. информация о субтитрах: karlivanovich
Работа над релизом:
Релиз kosmoaelita
Перевод на слух санглийского - karlivanovich
Спонсор русского перевода - kay1979
Рипы найдены на tv-vault



https://en.wikipedia.org/wiki/Clangers
Трейлер

MediaInfo

Общее
Полное имя : N:\The Clangers s01e01-13x13 1969-70 kosmoaelita\Clangers s01e01 Flying 1969.XviD.DVDRip.kosmoaelita.avi
Формат : AVI
Формат/Информация : Audio Video Interleave
Размер файла : 60,6 Мбайт
Продолжительность : 9 м. 29 с.
Общий поток : 894 Кбит/сек
Программа кодирования : VirtualDubMod 1.5.10.2 (build 2540/release)
Библиотека кодирования : VirtualDubMod build 2540/release
Видео
Идентификатор : 0
Формат : MPEG-4 Visual
Профиль формата : Advanced Simple@L5
Параметр BVOP формата : 2
Параметр QPel формата : Нет
Параметр GMC формата : Без точки перехода
Параметр матрицы формата : Default (H.263)
Режим смешивания : Сжатый битовый поток
Идентификатор кодека : XVID
Идентификатор кодека/Подсказка : XviD
Продолжительность : 9 м. 29 с.
Битрейт : 692 Кбит/сек
Ширина : 472 пикселя
Высота : 352 пикселя
Соотношение сторон : 16:9
Соотношение сторон в оригинале : 4:3
Частота кадров : 25,000 кадров/сек
Цветовое пространство : YUV
Субдискретизация насыщенности : 4:2:0
Битовая глубина : 8 бит
Тип развёртки : Прогрессивная
Метод сжатия : С потерями
Бит/(Пиксели*Кадры) : 0.167
Размер потока : 47,0 Мбайт (77%)
Библиотека кодирования : XviD 1.2.0.dev45 (UTC 2006-07-10)
Аудио
Идентификатор : 1
Формат : MPEG Audio
Версия формата : Version 1
Профиль формата : Layer 3
Идентификатор кодека : 55
Идентификатор кодека/Подсказка : MP3
Продолжительность : 9 м. 28 с.
Вид битрейта : Постоянный
Битрейт : 192 Кбит/сек
Каналы : 2 канала
Частота : 44,1 КГц
Метод сжатия : С потерями
Задержка видео : 26 мс.
Размер потока : 13,0 Мбайт (21%)
Выравнивание : Разделение по промежуткам
Продолжительность промежутка : 40 мс. (1,00 видеокадр)
Время предзагрузки промежутка : 500 мс.

Скриншот c названием фильма

Скриншоты



Скринлист

[Profile] [PM]
Display posts:    
Reply to topic

Current time is: 20-Aug 10:18

All times are UTC + 3



You cannot post new topics in this forum
You cannot reply to topics in this forum
You cannot edit your posts in this forum
You cannot delete your posts in this forum
You cannot vote in polls in this forum
You cannot attach files in this forum
You cannot download files in this forum