Запретная Зона Удаленные сцены и фрагменты / Forbidden Zone Deleted scenes and outtakes (Ричард Эльфман / Richard Elfman) [1980, США, фантасмагория, авангардный мюзикл, комедия, DVDRip] ЛО (den904), СТ (Severnyj)

Reply to topic
DL-List and Torrent activity
Size:  291 MB   |    Registered:  3 years 2 months   |    Completed:  0 times

Seeder not seen: 3 years 1 month

 
   
 
 
 
Author Message

kosmoaelita ®

Gender: Male

Longevity: 8 years 1 month

Posts: 1654

Post 08-Apr-2017 11:59

[Quote]

Запретная Зона Удаленные сцены и фрагменты / Forbidden Zone Deleted scenes and outtakes
Страна: США
Жанр: фантасмагория, авангардный мюзикл, комедия
Год выпуска: 1980
Продолжительность: 00:16:08
Перевод: ЛО den904 по субтитрам от (Severnyj)
Режиссер: Ричард Эльфман / Richard Elfman
В ролях: Эрве Вильшез, Сьюзан Тэррэлл, Жизель Линдли, Ян Стюарт Шварц, Мари-Паскаль Эльфман, Вирджиния Роуз, Угх-Фадж Бвана
Описание: Удаленные сцены и фрагменты. не вошедшие в фильм Forbidden Zone (1980)
http://kosmoaelita.com/viewtopic.php?t=2012
Релиз

Качество: DVDRip
Формат: MKV
Видео: x264, 2095 кбит/с, 720x408, 23.976 к/с,
Аудио 1: Русский ЛО (den904) (AC3, 2 ch, 192 Кбит/с)
Аудио 2: Английский (AC3, 2 ch, 192 Кбит/с)
Субтитры : Русские ()
Работа над релизом:
Рип с двд и спонсор перевода - Susanin
Русская озвучка по заказу kosmoaelita - den904
Спонсор русской озвучки - Андрей Берг


Дополнительно

MediaInfo

Общее
Уникальный идентификатор : 208032495540224585280241715769915473226 (0x9C8199EBF4B9F86A8D7723771B6BFD4A)
Полное имя : F:\Forbidden Zone Deleted scenes and outtakes 1980 Rus.kosmoaelita.mkv
Формат : Matroska
Версия формата : Version 4 / Version 2
Размер файла : 291 Мбайт
Продолжительность : 16 м.
Общий поток : 2525 Кбит/сек
Название фильма : Deleted scenes and outtakes Forbidden Zone / 1980 / релиз kosmoaelitta.com
Дата кодирования : UTC 2017-07-02 19:51:21
Программа кодирования : mkvmerge v6.6.0 ('The Edge Of The In Between') built on Dec 1 2013 17:55:00
Библиотека кодирования : libebml v1.3.0 + libmatroska v1.4.1
Видео
Идентификатор : 1
Формат : AVC
Формат/Информация : Advanced Video Codec
Профиль формата : High@L4.1
Параметр CABAC формата : Да
Параметр ReFrames формата : 10 кадров
Идентификатор кодека : V_MPEG4/ISO/AVC
Продолжительность : 16 м.
Битрейт : 2091 Кбит/сек
Ширина : 720 пикселей
Высота : 408 пикселей
Соотношение сторон : 16:9
Режим частоты кадров : Постоянный
Частота кадров : 23,976 (24000/1001) кадра/сек
Цветовое пространство : YUV
Субдискретизация насыщенности : 4:2:0
Битовая глубина : 8 бит
Тип развёртки : Прогрессивная
Бит/(Пиксели*Кадры) : 0.297
Размер потока : 241 Мбайт (83%)
Заголовок : kosmoaelita
Библиотека кодирования : x264 core 130 r2273 b3065e6
Настройки программы : cabac=1 / ref=10 / deblock=1:-1:-1 / analyse=0x3:0x133 / me=umh / subme=11 / psy=1 / psy_rd=1.00:0.15 / mixed_ref=1 / me_range=24 / chroma_me=1 / trellis=2 / 8x8dct=1 / cqm=0 / deadzone=21,11 / fast_pskip=1 / chroma_qp_offset=-3 / threads=12 / lookahead_threads=3 / sliced_threads=0 / nr=0 / decimate=1 / interlaced=0 / bluray_compat=0 / constrained_intra=0 / bframes=10 / b_pyramid=2 / b_adapt=2 / b_bias=0 / direct=1 / weightb=1 / open_gop=0 / weightp=2 / keyint=210 / keyint_min=21 / scenecut=40 / intra_refresh=0 / rc_lookahead=80 / rc=crf / mbtree=1 / crf=19.0 / qcomp=0.65 / qpmin=0 / qpmax=69 / qpstep=4 / ip_ratio=1.25 / aq=1:1.00
Default : Да
Forced : Нет
Аудио #1
Идентификатор : 2
Формат : AC-3
Формат/Информация : Audio Coding 3
Расширение режима : CM (complete main)
Параметр Endianness формата : Big
Идентификатор кодека : A_AC3
Продолжительность : 16 м.
Вид битрейта : Постоянный
Битрейт : 192 Кбит/сек
Каналы : 2 канала
Расположение каналов : Front: L R
Частота : 48,0 КГц
Частота кадров : 31,250 кадров/сек (1536 spf)
Метод сжатия : С потерями
Размер потока : 22,2 Мбайт (8%)
Заголовок : Русский ЛО (den904 для kosmoaelita.com) - поддержка А.Берг
Язык : Russian
Default : Да
Forced : Нет
Аудио #2
Идентификатор : 3
Формат : AC-3
Формат/Информация : Audio Coding 3
Расширение режима : CM (complete main)
Параметр Endianness формата : Big
Идентификатор кодека : A_AC3
Продолжительность : 16 м.
Вид битрейта : Постоянный
Битрейт : 192 Кбит/сек
Каналы : 2 канала
Расположение каналов : Front: L R
Частота : 48,0 КГц
Частота кадров : 31,250 кадров/сек (1536 spf)
Метод сжатия : С потерями
Размер потока : 22,2 Мбайт (8%)
Язык : English
Default : Нет
Forced : Нет
Текст #1
Идентификатор : 4
Формат : VobSub
Режим смешивания : zlib
Идентификатор кодека : S_VOBSUB
Идентификатор кодека/Информация : Picture based subtitle format used on DVDs
Заголовок : Русский (Severnyj) VobSub - перевод на слух с англ.
Язык : Russian
Default : Да
Forced : Нет
Текст #2
Идентификатор : 5
Формат : VobSub
Режим смешивания : zlib
Идентификатор кодека : S_VOBSUB
Идентификатор кодека/Информация : Picture based subtitle format used on DVDs
Заголовок : Русский (Severnyj) VobSub - перевод на слух с англ.
Язык : Russian
Default : Нет
Forced : Нет
Текст #3
Идентификатор : 6
Формат : UTF-8
Идентификатор кодека : S_TEXT/UTF8
Идентификатор кодека/Информация : UTF-8 Plain Text
Заголовок : Русский (Severnyj) srt - перевод на слух с англ.
Язык : Russian
Default : Нет
Forced : Нет

Скриншоты







Скринлист

cd Рип дополнительно залит на ОБЛАКО cd2
Forbidden Zone Deleted scenes and outtakes 1980 Rus.kosmoaelita.mkv.torrent
Torrent: Registered [ 2017-07-02 22:54 ]

Download .torrent

Download

23 KB

Status: checked
Completed: 0 times
Size: 291 MB
 


Last edited by kosmoaelita on 2017-07-02 23:02; edited 3 times in total
[Profile] [PM]

kosmoaelita ®

Gender: Male

Longevity: 8 years 1 month

Posts: 1654

Post 02-Jul-2017 22:45 (after 2 months 24 days)

[Quote]

Добавлена русская озвучка от den904
[Profile] [PM]

Susanin

Gender: Male

Longevity: 6 years 5 months

Posts: 848

Post 03-Jul-2017 13:29 (after 14 hours)

[Quote]

Аааатлична!
[Profile] [PM]
Display posts:    
Reply to topic

Current time is: 02-Oct 00:16

All times are UTC + 3



You cannot post new topics in this forum
You cannot reply to topics in this forum
You cannot edit your posts in this forum
You cannot delete your posts in this forum
You cannot vote in polls in this forum
You cannot attach files in this forum
You can download files in this forum