Аргомен / Как украсть английскую корону / Argoman / Come rubare la corona d'Inghilterra / The Incredible Paris Incident / Fantastic Argoman (Sergio Grieco / Серджо Греко) [1967, Италия, фантастика, боевик, приключения, BDRip-1080p] ЛО (den904), СТ (kosmoaelita-karlivanovich)

Reply to topic
 
Author Message

kosmoaelita ®

Gender: Male

Longevity: 9 years 8 months

Posts: 1925

Location: м.Рівне

Post 07-Apr-2017 17:26

[Quote]

Аргомен / Как украсть английскую корону / Argoman / Come rubare la corona d'Inghilterra / The Incredible Paris Incident / Fantastic Argoman
Страна: Италия, Fida Cinematografica
Жанр: фантастика, боевик, приключения
Год выпуска: 1967
Продолжительность: 01:33:15
Перевод: Субтитры kosmoaelita-karlivanovich
Озвучка: den904 по заказу Андрей Берг
Режиссер: Sergio Grieco (as Terence Hathaway) / Серджо Греко
В ролях:
Roger Browne ... Sir Reginald Hoover / Argoman
Dominique Boschero ... Regina Sullivan / Jenabell
Eduardo Fajardo ... Shandra, butler (as Edoardo Fajardo)
Nadia Marlowa ... Samantha
Nino Dal Fabbro ... Inspector Lawrence (as Richard Peters)
Edoardo Toniolo ... Inspector Martini (as Edward Douglas)
Andrea Bosic ... Admiral Durand
Tom Felleghy ... General Headwood (as Tom Fellegy)
Frank Richardson ... The Minister
Lawrence Mills
Dario De Grassi ... Lawrence's Assistant
Mirella Pamphili ... (credit only) (as Mirella Panfili)
Mimmo Palmara ... Kurt, Main Henchman of Jenabel (as Dick Palmer)
Описание: Суперзлодейка Дженабель бросает вызов Скотланд-Ярду, демонстративно возвращая похищенную ею же корону Британской Империи. Ее цели распространяются гораздо дальше, чем владение этой безделушкой. Она рассчитывает стать повелительницей всей Земли. Для этого уже сооружена специальная установка, центром которой должен стать гигантский алмаз. Несмотря на специальные меры предосторожности, отвечающий за безопасность камня инспектор Лоуренс не уверен, что сможет его защитить. Ведь ему противостоит неуловимый Аргомен, сверхчеловек с удивительными способностями. Впрочем, близкий друг инспектора сэр Реджинальд Хувер не советует тому слишком волноваться. Ведь он-то точно знает, что Аргомен играет вовсе не на стороне Дженабель, а совсем даже наоборот…
Релиз

Качество: BDRip-1080p
Формат: MKV
Видео: x264, 8500 кбит/с, 1920x816, 23.976 к/с
Аудио 1: Русский ЛО (den904) на англ. дорожку (AC3, 2 ch, 384 Кбит/с)
Аудио 2: Русский ЛО (den904) на итал. дорожку (AC3, 2 ch, 192 Кбит/с)
Аудио 3: Итальянский (AC3, 2 ch, 192 Кбит/с)
Аудио 4: Английский (AC3, 2 ch, 384 Кбит/с)
Субтитры : Русские ()
Работа над релизом:
Релиз kosmoaelita.
Видеоряд найден на рабре - kosmoaelita.
Перевод на слух с англ. по заказу kosmoaelita - karlivanovich
Озвучка den904 по заказу Андрея Берга
Монтаж видео, работа со звуком. тайминг субтитров - kosmoaelita



Пример русского перевода

Дополнительно

Формат изображения: 2.35 : 1
Формат копии: 35 mm
Формат съёмок: 35 mm
Изображение: цветное
Язык: французский, итальянский
Also Known As (AKA)
Belgium Superman diabolico
Brazil Argoman Superdiabólico
Canada (French title) Argoman
Spain Asalto a la corona de Inglaterra
France (alternative title) Le diabolique superman
France Superman contre les robots - Argoman super diabolico
France Superman le diabolique
UK Argoman the Fantastic Superman
UK How to Steal the Crown of England
Greece (reissue title) Argoman, o maskoforos superman
Greece (reissue title) Maskoforos ekdikitis
Greece (transliterated ISO-LATIN-1 title) Pio dynatos ki apo ton Satana
Israel (English title) The Fantastic Argoman
Philippines (English title) Fantastic Argoman
Sweden Argoman - Superfantomen
USA The Incredible Paris Incident
West Germany Argoman - Der phantastische Supermann

Знаете ли вы, что...

MediaInfo

Общее
Уникальный идентификатор : 170899484211833447035997744975648242554 (0x80920B1D130CDF6CA7C6C1DF96FDBB7A)
Полное имя : N:\BD-DISC\Argoman.the.Fantastic.Superman.1967.DUBBED.1080p.BluRay.x264-GUACAMOLE[rarbg]\Новая папка\Argoman 1967.x264.BDRip.1080p.Rus.kosmoaelita.mkv
Формат : Matroska
Версия формата : Version 4
Размер файла : 6,29 Гбайт
Продолжительность : 1 ч. 33 м.
Общий поток : 9661 Кбит/сек
Название фильма : Fantastic Argoman (1967) Релиз kosmoaelita
Дата кодирования : UTC 2021-11-18 21:42:31
Программа кодирования : mkvmerge v6.6.0 ('The Edge Of The In Between') built on Dec 1 2013 17:55:00
Библиотека кодирования : libebml v1.3.0 + libmatroska v1.4.1
Attachments : 1 (1)222222222.mkv.encoding.log / poster.jpg
Видео
Идентификатор : 1
Формат : AVC
Формат/Информация : Advanced Video Codec
Профиль формата : High@L4.1
Настройки формата : CABAC / 5 Ref Frames
Параметр CABAC формата : Да
Параметр RefFrames формата : 5 кадров
Идентификатор кодека : V_MPEG4/ISO/AVC
Продолжительность : 1 ч. 33 м.
Битрейт : 8500 Кбит/сек
Ширина : 1920 пикселей
Высота : 816 пикселей
Соотношение сторон : 2,35:1
Режим частоты кадров : Постоянный
Частота кадров : 23,976 кадра/сек
Цветовое пространство : YUV
Субдискретизация насыщенности : 4:2:0
Битовая глубина : 8 бит
Тип развёртки : Прогрессивная
Бит/(Пиксели*Кадры) : 0.226
Размер потока : 5,42 Гбайт (86%)
Заголовок : http://kosmoaelita.com/viewtopic.php?t=2337
Библиотека кодирования : x264 core 146 r2538 121396c
Настройки программы : cabac=1 / ref=5 / deblock=1:-3:-3 / analyse=0x3:0x131 / me=umh / subme=10 / psy=1 / psy_rd=0.99:0.14 / mixed_ref=1 / me_range=32 / chroma_me=1 / trellis=2 / 8x8dct=1 / cqm=0 / deadzone=21,11 / fast_pskip=1 / chroma_qp_offset=-3 / threads=6 / lookahead_threads=1 / sliced_threads=0 / nr=0 / decimate=1 / interlaced=0 / bluray_compat=0 / constrained_intra=0 / bframes=8 / b_pyramid=2 / b_adapt=2 / b_bias=0 / direct=3 / weightb=1 / open_gop=0 / weightp=2 / keyint=210 / keyint_min=21 / scenecut=40 / intra_refresh=0 / rc_lookahead=80 / rc=2pass / mbtree=1 / bitrate=8500 / ratetol=1.0 / qcomp=0.65 / qpmin=0 / qpmax=69 / qpstep=4 / cplxblur=20.0 / qblur=0.5 / ip_ratio=1.25 / aq=1:0.90
Default : Да
Forced : Нет
Цветовой диапазон : Limited
Основные цвета : BT.709
Характеристики трансфера : BT.709
Коэффициенты матрицы : BT.709
Аудио #1
Идентификатор : 2
Формат : AC-3
Формат/Информация : Audio Coding 3
Коммерческое название : Dolby Digital
Идентификатор кодека : A_AC3
Продолжительность : 1 ч. 33 м.
Вид битрейта : Постоянный
Битрейт : 384 Кбит/сек
Каналы : 2 канала
ChannelLayout : L R
Частота : 48,0 КГц
Частота кадров : 31,250 кадров/сек (1536 SPF)
Битовая глубина : 16 бит
Метод сжатия : С потерями
Размер потока : 256 Мбайт (4%)
Заголовок : Русский ЛО (den904 для kosmoaelita) - на англ. дорожку - поддержка А.Берг
Язык : Russian
ServiceKind/String : Complete Main
Default : Да
Forced : Нет
Аудио #2
Идентификатор : 3
Формат : AC-3
Формат/Информация : Audio Coding 3
Коммерческое название : Dolby Digital
Идентификатор кодека : A_AC3
Продолжительность : 1 ч. 33 м.
Вид битрейта : Постоянный
Битрейт : 192 Кбит/сек
Каналы : 2 канала
ChannelLayout : L R
Частота : 48,0 КГц
Частота кадров : 31,250 кадров/сек (1536 SPF)
Битовая глубина : 16 бит
Метод сжатия : С потерями
Размер потока : 128 Мбайт (2%)
Заголовок : Русский ЛО (den904 для kosmoaelita) - на итал. дорожку - поддержка А.Берг
Язык : Russian
ServiceKind/String : Complete Main
Default : Нет
Forced : Нет
Аудио #3
Идентификатор : 4
Формат : AC-3
Формат/Информация : Audio Coding 3
Коммерческое название : Dolby Digital
Идентификатор кодека : A_AC3
Продолжительность : 1 ч. 33 м.
Вид битрейта : Постоянный
Битрейт : 384 Кбит/сек
Каналы : 2 канала
ChannelLayout : L R
Частота : 48,0 КГц
Частота кадров : 31,250 кадров/сек (1536 SPF)
Битовая глубина : 16 бит
Метод сжатия : С потерями
Размер потока : 256 Мбайт (4%)
Язык : English
ServiceKind/String : Complete Main
Default : Нет
Forced : Нет
Аудио #4
Идентификатор : 5
Формат : AC-3
Формат/Информация : Audio Coding 3
Коммерческое название : Dolby Digital
Идентификатор кодека : A_AC3
Продолжительность : 1 ч. 33 м.
Вид битрейта : Постоянный
Битрейт : 192 Кбит/сек
Каналы : 2 канала
ChannelLayout : L R
Частота : 48,0 КГц
Частота кадров : 31,250 кадров/сек (1536 SPF)
Битовая глубина : 16 бит
Метод сжатия : С потерями
Размер потока : 128 Мбайт (2%)
Язык : Italian
ServiceKind/String : Complete Main
Default : Нет
Forced : Нет
Текст #1
Идентификатор : 6
Формат : UTF-8
Идентификатор кодека : S_TEXT/UTF8
Идентификатор кодека/Информация : UTF-8 Plain Text
Заголовок : Русский (kosmoaelita-karlivanovich) srt - перевод на слух с англ.
Язык : Russian
Default : Нет
Forced : Нет
Текст #2
Идентификатор : 7
Формат : PGS
Режим смешивания : zlib
Идентификатор кодека : S_HDMV/PGS
Идентификатор кодека/Информация : Picture based subtitle format used on BDs/HD-DVDs
Заголовок : Русский (kosmoaelita-karlivanovich) PGS - перевод на слух с англ.
Язык : Russian
Default : Нет
Forced : Нет

Пример субтитров

1
00:00:01,550 --> 00:00:05,690
РОДЖЕР БРАУН
в фильме
2
00:00:05,810 --> 00:00:09,900
"Аргомен - как украсть
английскую корону"
3
00:00:09,950 --> 00:00:13,900
[Argoman - Come rubare la corona
d'Inghilterra, 1967г]
4
00:00:14,360 --> 00:00:18,030
В ролях
Доминик Босчеро
5
00:00:18,230 --> 00:00:22,920
Эдуардо Фахардо,
Надия Марлова
6
00:00:51,299 --> 00:00:54,011
Перевод karlivanovich
для сайта kosmoaelita. com
7
00:02:14,130 --> 00:02:18,490
Режиссёр
Серджо Греко
8
00:02:34,130 --> 00:02:38,490
Релиз
www.kosmoaelita.com
9
00:02:55,240 --> 00:02:58,250
Корона Св. Эдуарда,
представить себе невозможно!
10
00:02:58,350 --> 00:03:02,270
Такое обычному преступнику
разумеется не под силу.
--------------------
743
01:32:03,610 --> 01:32:05,690
Реджи, дорогой!
744
01:32:07,400 --> 01:32:11,390
Спасибо за фантастическую шляпу, однако
не слишком ли это для меня помпезно?
745
01:32:11,470 --> 01:32:15,400
Ты права, дорогая, я тебе
ещё что-нибудь найду.
746
01:32:16,060 --> 01:32:19,790
Положи ко мне в гардероб, Шандра.

Скриншоты




















Скринлист



Last edited by kosmoaelita on 2021-11-19 01:24; edited 5 times in total
[Profile] [PM]

den904

Gender: Male

Longevity: 8 years 11 months

Posts: 212

Post 30-Jul-2017 17:56 (after 3 months 23 days)

[Quote]

Торент обновлён, добавлена русская озвучка.
[Profile] [PM]

kosmoaelita ®

Gender: Male

Longevity: 9 years 8 months

Posts: 1925

Location: м.Рівне

Post 19-Nov-2021 00:50 (after 4 years 3 months)

[Quote]

Замена на BDRip-1080p
На блюре с rarbg изначально почему то отсутствовало 6 сцен. продолжительностью примерно 6 минут. Здесь они "вклеены" на свои места
[Profile] [PM]
Display posts:    
Reply to topic

Current time is: 23-May 13:56

All times are UTC + 3



You cannot post new topics in this forum
You cannot reply to topics in this forum
You cannot edit your posts in this forum
You cannot delete your posts in this forum
You cannot vote in polls in this forum
You cannot attach files in this forum
You cannot download files in this forum