Рост населения: Ноль / Z.P.G. / Zero Population Growth / Un mondo maledetto fatto di bambole (Майкл Кампус) [1972 г., фантастика, триллер, BDRip-1080p] АО (В.Котов)

Reply to topic
 
Author Message

kosmoaelita ®

Gender: Male

Longevity: 8 years 1 month

Posts: 1680

Post 07-Apr-2017 00:37

[Quote]

Рост населения: Ноль / Z.P.G. / Zero Population Growth / Un mondo maledetto fatto di bambole
Год выпуска: 1972
Страна: Великобритания , Sagittarius Productions Inc.
Жанр: фантастика, триллер
Продолжительность: 01:34:41
Перевод: Авторский одноголосый В.Котов
Режиссер: Майкл Кампус / Michael Campus
В ролях:
Oliver Reed ... Russ McNeil
Geraldine Chaplin ... Carol McNeil
Don Gordon ... George Borden
Diane Cilento ... Edna Borden
Rest of cast listed alphabetically:
Eugene Blau ... Baby Shop Salesman
Bent Christensen ... Baby Shop Salesman
Belinda Donkin ... Daughter
Birgitte Federspiel ... Psychiatrist
Birgitte Frigast ... Nurse
Anne-Lise Gabold ... Mother in Baby Shop
Michel Hildesheim ... Thief
Peter Hohnen ... Edict Boy
Torben Hundal ... President's Aide
Theis Ib Husfeldt ... Jessie
Wladirmir Kandel ... Edict Examiner
Описание: В отдаленном будущем закон наказывает смертной казнью продолжение человеческого рода из-за невероятного перенаселения Земли. Детей заменяют роботоподобные клоны. Храбрая супружеская чета Расс и Кэрол Макнил решают нарушить этот запрет и заиметь настоящего ребенка. Естественно, правительство собирается строго наказать вольнолюбцев за нарушение закона……
Качество: BDRip-1080p
Формат: MKV
Видео: x264, 10000 кбит/с, 1920x1080, 23.976 к/с, crf=20
Аудио 1: Русский АО (Котов) (AC3, 2 ch, 192 Кбит/с)
Аудио 2: Английский (AC3, 2 ch, 640 Кбит/с)
Аудио 3: Английский Comment (AC3, 2 ch, 256 Кбит/с)
Субтитры : Английские
Работа над релизом:
Рип с BD25 с синематика и синх. русской дорожки - kosmoaelita
Релиз "почившего" синемаскопа.



Пример русской озвучки

Дополнительно

слоган «Smog covers the earth. The oxygen is depleted. Love is encouraged. But the penalty for birth is death»
рейтинг MPAA рекомендуется присутствие родителей
Also Known As (AKA)
(original title) Z.P.G.
Edict
The First of January
Brazil É Proibido Procriar
Spain Edicto siglo XXI - Prohibido tener hijos
Finland Dead Kids
France Population zéro
UK (alternative title) Zero Population Growth
Greece (video title) Afxisi plithysmou miden
Greece Anaptyxis plithysmou miden
Italy ZPG, un mondo maledetto fatto di bambole
Japan Akachan yo Eien ni
Portugal O Direito de Viver
West Germany (TV title) Geburten verboten
West Germany (video box title) ZPG - Die Erde stirbt
================================================
Для Украины: рип и оригинальный ДВД дополнительно залиты в файлохранилище
Для удаления,добавления и извлечения дорожек в mkv используйте бесплатную портативную mkvmerge GUI 6.6.0
Для присоединения потом дорожек к avi воспользуйтесь VirtualDubMod

Отзывы

Выразительный фантастический фильм, созданный в том же стиле, что и картина «Бегство Логана» (1976). Люди в противогазах, животные только в музеях, пища только в виде пасты-не правда ли, увлекательное будущее? Запрет: никаких детей, а уже рожденные имеют невидимое сканирующее устройство на лбах. В фильме «Бегство Логана» дети имеют маленькие кристаллы на своих ладонях, которые зажигаются, когда возраст переваливает за тридцать. Сцена, когда Оливер Рид ищет убежище для родов в библиотеке, очень напоминает эпизод, когда Логан обследует заповедник. Оба фильма сближают бегство от ущемлений и ограничений, налагаемых властями. На Каталонском международном кинофестивале Джеральдина Чаплин была признана лучшей актрисой

Лог кодирования

MediaInfo

Общее
Уникальный идентификатор : 195628270834058594142005241833499208939 (0x932CA26D12562FA48F09CB3AAA692CEB)
Полное имя : N:\Zero Population Growth 1972.x264.BDRip.1080p.Rus.kosmoaelita.mkv
Формат : Matroska
Версия формата : Version 4 / Version 2
Размер файла : 7,34 Гбайт
Продолжительность : 1 ч. 34 м.
Общий поток : 11,1 Мбит/сек
Название фильма : Z.R.G. / Zero Population Growth / 1972 / rip from BD25 by sasha20072007 (kosmoaelita) (2017-04-06), crf= 19.61
Дата кодирования : UTC 2017-04-06 19:59:30
Программа кодирования : mkvmerge v6.6.0 ('The Edge Of The In Between') built on Dec 1 2013 17:55:00
Библиотека кодирования : libebml v1.3.0 + libmatroska v1.4.1
Attachments : Zero Population Growth 1080.mkv.encoding.log / POSTER.jpg
Видео
Идентификатор : 1
Формат : AVC
Формат/Информация : Advanced Video Codec
Профиль формата : High@L4.1
Параметр CABAC формата : Да
Параметр ReFrames формата : 4 кадра
Идентификатор кодека : V_MPEG4/ISO/AVC
Продолжительность : 1 ч. 34 м.
Битрейт : 10000 Кбит/сек
Ширина : 1920 пикселей
Высота : 1080 пикселей
Соотношение сторон : 16:9
Режим частоты кадров : Постоянный
Частота кадров : 23,976 кадра/сек
Цветовое пространство : YUV
Субдискретизация насыщенности : 4:2:0
Битовая глубина : 8 бит
Тип развёртки : Прогрессивная
Бит/(Пиксели*Кадры) : 0.201
Размер потока : 6,47 Гбайт (88%)
Заголовок : kosmoaelita
Библиотека кодирования : x264 core 130 r2273 b3065e6
Настройки программы : cabac=1 / ref=4 / deblock=1:-1:-1 / analyse=0x3:0x133 / me=umh / subme=10 / psy=1 / psy_rd=0.99:0.14 / mixed_ref=1 / me_range=32 / chroma_me=1 / trellis=2 / 8x8dct=1 / cqm=0 / deadzone=21,11 / fast_pskip=1 / chroma_qp_offset=-3 / threads=6 / lookahead_threads=1 / sliced_threads=0 / nr=0 / decimate=1 / interlaced=0 / bluray_compat=0 / constrained_intra=0 / bframes=8 / b_pyramid=2 / b_adapt=2 / b_bias=0 / direct=3 / weightb=1 / open_gop=0 / weightp=2 / keyint=210 / keyint_min=21 / scenecut=40 / intra_refresh=0 / rc_lookahead=60 / rc=2pass / mbtree=1 / bitrate=10000 / ratetol=1.0 / qcomp=0.65 / qpmin=0 / qpmax=69 / qpstep=4 / cplxblur=20.0 / qblur=0.5 / ip_ratio=1.25 / aq=1:0.90
Язык : English
Default : Да
Forced : Нет
Цветовой диапазон : Limited
Основные цвета : BT.709
Характеристики трансфера : BT.709
Коэффициенты матрицы : BT.709
Аудио #1
Идентификатор : 2
Формат : AC-3
Формат/Информация : Audio Coding 3
Расширение режима : CM (complete main)
Параметр Endianness формата : Big
Идентификатор кодека : A_AC3
Продолжительность : 1 ч. 34 м.
Вид битрейта : Постоянный
Битрейт : 192 Кбит/сек
Каналы : 2 канала
Расположение каналов : Front: L R
Частота : 48,0 КГц
Частота кадров : 31,250 кадров/сек (1536 spf)
Метод сжатия : С потерями
Размер потока : 130 Мбайт (2%)
Заголовок : Русский АО (В.Котов)
Язык : Russian
Default : Да
Forced : Нет
Аудио #2
Идентификатор : 3
Формат : AC-3
Формат/Информация : Audio Coding 3
Расширение режима : CM (complete main)
Параметр Endianness формата : Big
Идентификатор кодека : A_AC3
Продолжительность : 1 ч. 34 м.
Вид битрейта : Постоянный
Битрейт : 640 Кбит/сек
Каналы : 2 канала
Расположение каналов : Front: L R
Частота : 48,0 КГц
Частота кадров : 31,250 кадров/сек (1536 spf)
Метод сжатия : С потерями
Размер потока : 433 Мбайт (6%)
Язык : English
Default : Нет
Forced : Нет
Аудио #3
Идентификатор : 4
Формат : AC-3
Формат/Информация : Audio Coding 3
Расширение режима : CM (complete main)
Параметр Endianness формата : Big
Идентификатор кодека : A_AC3
Продолжительность : 1 ч. 34 м.
Вид битрейта : Постоянный
Битрейт : 256 Кбит/сек
Каналы : 2 канала
Расположение каналов : Front: L R
Частота : 48,0 КГц
Частота кадров : 31,250 кадров/сек (1536 spf)
Метод сжатия : С потерями
Размер потока : 173 Мбайт (2%)
Заголовок : Comment
Язык : English
Default : Нет
Forced : Нет
Текст #1
Идентификатор : 5
Формат : VobSub
Режим смешивания : zlib
Идентификатор кодека : S_VOBSUB
Идентификатор кодека/Информация : Picture based subtitle format used on DVDs
Язык : English
Default : Нет
Forced : Нет
Текст #2
Идентификатор : 6
Формат : UTF-8
Идентификатор кодека : S_TEXT/UTF8
Идентификатор кодека/Информация : UTF-8 Plain Text
Язык : English
Default : Да
Forced : Нет
Меню
00:00:00.000 : en:00:00:00.000
00:08:32.137 : en:00:08:32.137
00:13:15.461 : en:00:13:15.461
00:22:52.705 : en:00:22:52.705
00:40:37.185 : en:00:40:37.185
00:56:15.706 : en:00:56:15.706
01:05:59.998 : en:01:05:59.998
01:20:02.798 : en:01:20:02.798
01:34:51.769 : en:01:34:51.769

Скриншоты








Скринлист

cd Рип дополнительно залит на mail.ru cd2
[Profile] [PM]
Display posts:    
Reply to topic

Current time is: 20-Oct 02:52

All times are UTC + 3



You cannot post new topics in this forum
You cannot reply to topics in this forum
You cannot edit your posts in this forum
You cannot delete your posts in this forum
You cannot vote in polls in this forum
You cannot attach files in this forum
You cannot download files in this forum