Марсианские земли / Martian Land (Scott Wheeler (as Scott D. Wheeler) / Скотт Вилер) [2015, США, фантастика, боевик, приключения, BDRip-1080p] (СТ : kosmoaelita-karlivanovich)

Ответить на тему
 
Автор Сообщение

kosmoaelita ®

Пол: Мужской

Стаж: 4 года 10 месяцев

Сообщений: 969

Откуда: Украина

Создавать темы 17-Мар-2017 03:19

[Цитировать]

Марсианские земли / Martian Land
Страна: США, Global Asylum
Жанр: фантастика, боевик, приключения
Год выпуска: 2015
Продолжительность: 01:25:49
Перевод: Субтитры kosmoaelita-karlivanovich
Режиссер: Scott Wheeler (as Scott D. Wheeler) / Скотт Вилер
В ролях:
Lane Townsend ... Foster
Alan Pietruszewski ... Neil
Jennifer Dorogi ... Miranda
Arianna Afsar ... Ellie
Chloe Farnworth ... Ida
Chaim Dunbar ... Andrews
Dionne Neish ... Reiger
Caroline Williams ... Ulyana
Eddy Owdish ... Klaus
Caroline Attwood ... Dana
Dan Czerwonka ... Carlos
James Wong ... Bryce
Maximilian Elfeldt ... Jenkins
Описание: В центре истории оказалось далекое будущее. Люди загадили Землю настолько, что легче стало переселится на Марс. Здесь были построены города, похожие на земные и огорожены куполообразным защитным полем. Однажды, песчаная буря невиданной силы уничтожила купол марсианского Нью-Йорка и, соответственно, город. Теперь жители марсианского Лос-Анджелеса вынуждены решить проблему бури.
Релиз

Качество: BDRip-1080p
Формат: MKV
Видео: x264, 9783 кбит/с, 1920x1080, 23.976 к/с, crf=18
Аудио 2: Английский (DTS, 6 ch, 1172 Кбит/с)
Субтитры : Русские ()
Работа над релизом:
Релиз kosmoaelita.
Видеоряд найден в сети.
Перевод на слух с англ. по заказу kosmoaelita - karlivanovich



Пример русских субтитров

Дополнительно

слоган «There is no life on Mars. Just death»
Also Known As (AKA)
Germany (DVD title) Marsland - Kein Ort zum Überleben
Spain Tierra marciana
France (cable TV title) Mars apocalypse
Poland Marsjańska ziemia
Формат изображения: 1.78 : 1
Формат копии: 35 mm
Формат съёмок: Redcode RAW
Изображение: цветное
Язык: английский

Знаете ли вы, что...

Отзывы

Очень забавный фильмец. Никак не отпускает ощущение что это один из тех тематических порнофильмов, где герои вот-вот разденутся и начнется оргия. Все остальное- для антуража. Сюжет высосан из пальца, cgi стоил баксов 50, актерская игра- просто венец с-класса фильмов, опять же уже упомянутые костюмы и обстановка...
А этот негр с жопой вместо подбородка просто гипнотизирует))
----------------------------------------------------------------
Сверхполиткорректная дурь с забавно мигающими лампочками времен Стартрека..
-----------------------------------------------------------------
бюджета фильма даже на муляжи скафандров не хватило, то ли мотошлемы то ли сварочные маски.
--------------------------------------------------
Да хорош....))) не надо критиковать,по-ржем хоть над дешевизной фильма,над тем,как горе-актеры сего шедевра,при таком нищенском бюджете этого фильма,пытаются пристроиться к сюжету персонажей ,сыграть персонажей своих,ахахаха ведь прикольно же-ж))) К примеру,студия Asylum,тоже ржачные фильмы создает,такой как у них талант,точно не пропьешь))) я удивлюсь если они хоть на бутылку хорошего,дорогого вискаря, заработают на этом,фильме.)))
------------------------------------------------------------------------------------
А это "Asylum" и есть, собственной персоной. По скафандрам же видно.

MediaInfo

Общее
Уникальный идентификатор : 227732391499490612268205342787097900402 (0xAB53A9C81A5A8EABBF002966DF58B572)
Полное имя : N:\Martian Land 2015.x264.BDRip.1080p.kosmoaelita.mkv
Формат : Matroska
Версия формата : Version 4 / Version 2
Размер файла : 6,56 Гбайт
Продолжительность : 1 ч. 25 м.
Общий поток : 10,9 Мбит/сек
Название фильма : Martian Land / 2015 / Релиз kosmoaelita.com
Дата кодирования : UTC 2017-03-18 03:40:44
Программа кодирования : mkvmerge v6.6.0 ('The Edge Of The In Between') built on Dec 1 2013 17:55:00
Библиотека кодирования : libebml v1.3.0 + libmatroska v1.4.1
Attachments : POSTER.jpg
Видео
Идентификатор : 1
Формат : AVC
Формат/Информация : Advanced Video Codec
Профиль формата : High@L4.1
Параметр CABAC формата : Да
Параметр ReFrames формата : 4 кадра
Идентификатор кодека : V_MPEG4/ISO/AVC
Продолжительность : 1 ч. 25 м.
Битрейт : 9783 Кбит/сек
Ширина : 1920 пикселей
Высота : 1080 пикселей
Соотношение сторон : 16:9
Режим частоты кадров : Постоянный
Частота кадров : 23,976 (24000/1001) кадра/сек
Цветовое пространство : YUV
Субдискретизация насыщенности : 4:2:0
Битовая глубина : 8 бит
Тип развёртки : Прогрессивная
Бит/(Пиксели*Кадры) : 0.197
Размер потока : 5,74 Гбайт (87%)
Заголовок : kosmoaelita
Библиотека кодирования : x264 core 148 r2665 a01e339
Настройки программы : cabac=1 / ref=4 / deblock=1:-2:-2 / analyse=0x3:0x113 / me=umh / subme=8 / psy=1 / psy_rd=1.00:0.00 / mixed_ref=1 / me_range=16 / chroma_me=1 / trellis=1 / 8x8dct=1 / cqm=0 / deadzone=21,11 / fast_pskip=1 / chroma_qp_offset=-2 / threads=6 / lookahead_threads=1 / sliced_threads=0 / nr=0 / decimate=1 / interlaced=0 / bluray_compat=0 / constrained_intra=0 / bframes=3 / b_pyramid=2 / b_adapt=2 / b_bias=0 / direct=3 / weightb=1 / open_gop=0 / weightp=2 / keyint=240 / keyint_min=24 / scenecut=40 / intra_refresh=0 / rc_lookahead=50 / rc=2pass / mbtree=1 / bitrate=9783 / ratetol=1.0 / qcomp=0.60 / qpmin=0 / qpmax=69 / qpstep=4 / cplxblur=20.0 / qblur=0.5 / ip_ratio=1.40 / aq=1:1.00
Язык : English
Default : Да
Forced : Нет
Аудио
Идентификатор : 2
Формат : DTS
Формат/Информация : Digital Theater Systems
Режим : 16
Параметр Endianness формата : Big
Идентификатор кодека : A_DTS
Продолжительность : 1 ч. 25 м.
Вид битрейта : Постоянный
Битрейт : 1152 Кбит/сек
Каналы : 6 каналов
Расположение каналов : Front: L C R, Side: L R, LFE
Частота : 48,0 КГц
Частота кадров : 93,750 кадра/сек (512 spf)
Битовая глубина : 24 бит
Метод сжатия : С потерями
Размер потока : 707 Мбайт (11%)
Заголовок : DTS
Язык : English
Default : Да
Forced : Нет
Текст #1
Идентификатор : 3
Формат : PGS
Режим смешивания : zlib
Идентификатор кодека : S_HDMV/PGS
Идентификатор кодека/Информация : Picture based subtitle format used on BDs/HD-DVDs
Заголовок : Русский (kosmoaelita-karlivanovich) PGS - перевод на слух с англ.
Язык : Russian
Default : Да
Forced : Нет
Текст #2
Идентификатор : 4
Формат : VobSub
Режим смешивания : zlib
Идентификатор кодека : S_VOBSUB
Идентификатор кодека/Информация : Picture based subtitle format used on DVDs
Заголовок : Русский (kosmoaelita-karlivanovich) VobSub - перевод на слух с англ.
Язык : Russian
Default : Нет
Forced : Нет
Текст #3
Идентификатор : 5
Формат : UTF-8
Идентификатор кодека : S_TEXT/UTF8
Идентификатор кодека/Информация : UTF-8 Plain Text
Заголовок : Русский (kosmoaelita-karlivanovich) srt - перевод на слух с англ.
Язык : Russian
Default : Нет
Forced : Нет
Меню
00:00:00.000 : en:00:00:00.000
00:09:59.974 : en:00:09:59.974
00:19:59.990 : en:00:19:59.990
00:29:59.965 : en:00:29:59.965
00:39:59.981 : en:00:39:59.981
00:49:59.997 : en:00:49:59.997
00:59:59.971 : en:00:59:59.971
01:09:59.987 : en:01:09:59.987
01:19:59.962 : en:01:19:59.962

Пример субтитров

1
00:00:00,217 --> 00:00:03,558
Асилум представляет
2
00:00:03,617 --> 00:00:09,558
Земля. Трудно вспомнить, когда леса
были зелёными и океаны голубыми.
3
00:00:10,023 --> 00:00:14,601
После долгих лет человеческих
злоупотреблений она, наконец, отомстила.
4
00:00:14,893 --> 00:00:19,172
Серией катастрофических
стихийных бедствий Земля стала...
5
00:00:19,197 --> 00:00:23,858
...проводить некую систематическую
кампанию против человечества.
6
00:00:25,008 --> 00:00:27,727
Небо переполнено пеплом.
7
00:00:27,771 --> 00:00:30,386
Урожаи чахнут и гибнут.
--------------------
938
01:21:40,426 --> 01:21:42,426
Итак, папа...
939
01:21:43,871 --> 01:21:46,526
...полетишь обратно на Землю или...
940
01:21:46,820 --> 01:21:49,574
Ты нам очень
пригодишься, Фостер.
941
01:21:50,677 --> 01:21:52,677
Я никуда не полечу.

Скринлист

[Профиль] [ЛС]
Быстрый ответ

Имя:

            
Для отправки сообщений необходимо включить JavaScript
Показать сообщения:    
Ответить на тему

Текущее время: 24-Июл 08:08

Часовой пояс: UTC + 3:30



Вы не можете начинать темы
Вы можете отвечать на сообщения
Вы не можете редактировать свои сообщения
Вы не можете удалять свои сообщения
Вы не можете голосовать в опросах
Вы не можете прикреплять файлы к сообщениям
Вы не можете скачивать файлы