Звездный отряд: Война на Марсе / Звездный отряд Война на Марсе . DVD5 / Crimson Force (Дэвид Флорес / David Flores) [2005, США, фантастика, боевик, DVD5] (ПМ) (ПМ)

Reply to topic
 
Author Message

CROM@G ®

Gender: Male

Longevity: 5 years 5 months

Posts: 3592

Location: Прибалтика

Post 12-Mar-2017 08:36

[Quote]

Звездный отряд: Война на Марсе / Звездный отряд Война на Марсе . DVD5 / Crimson Force
Страна: США
Жанр: фантастика, боевик
Год выпуска: 2005
Продолжительность: 01:31:36
Перевод: Профессиональный (многоголосый)
Перевод 2: Профессиональный (многоголосый)
Режиссер: Дэвид Флорес / David Flores
В ролях: Tony Amendola ... Marduk
Taylor Mac Bowyer ... Zu
Nina Salza Burns ... Mara
David Chokachi ... Ambrose
Jeff Fahey ... Older Man
Jeff Gimble ... Boudin
Richard Gnolfo ... Sean Kane
C. Thomas Howell ... Captain Baskin
Terasa Livingstone ... Shara
Jeff Rank ... Nerdy Accountant
Julia Rose ... Enya
Kitodar Todorov ... Igor
Steven Williams ... Williams
Описание: В недалеком будущем, когда земляне с переменным успехом пытаются колонизировать Луну, а гнездо кинематографического порока Лос-Анджелес лежит в руинах после чудовищного землетрясения, траснациональная корпорация «Xychord» отправляет к Марсу пестрый международный экипаж на звездолете с говорящим названием «Venture», т. е. «Авантюра». По официальной версии астронавты должны произвести поиск полезных ископаемых, истинная задача экспедиции — разыскать скрытый источник энергии, размещенный где-то в долине Кидония. Но обнаруживает, что на планете полыхает гражданская война.
Доп. информация: За исходник и подгонку звука спасибо Биг Босс . За сборку двд все спасибы anvic
Качество видео: DVD5
Формат видео: DVD Video
Видео: 720x480 (4:3) 29.970 кадров.сек
Аудио: Русский ПМ AC3, 2 ch, 192 Кбит/с)
Аудио 2: Русский ПМ (AC3, 2 ch, 192 Кбит/с)
Аудио 3: Английский (AC3, 2 ch, 224 Кбит/с)
Аудио 4: Английский (AC3, 2 ch, 224 Кбит/с)

MediaInfo

Общее
Полное имя : C:\Users\Roman\Звездный отряд Война на Марсе\crf\Crimson force\VIDEO_TS.BUP
Формат : DVD Video
Профиль формата : Menu
Размер файла : 16,0 Кбайт
Режим общего битрейта : Переменный
FileExtension_Invalid : ifo
Видео
Идентификатор : 224 (0xE0)
Формат : MPEG Video
Версия формата : Version 1
Вид битрейта : Переменный
Ширина : 720 пикселей
Высота : 480 пикселей
Соотношение сторон : 4:3
Частота кадров : 29,970 (29970/1000) кадров/сек
Стандарт вещания : NTSC
Метод сжатия : С потерями
Общее
Полное имя : C:\Users\Roman\Звездный отряд Война на Марсе\crf\Crimson force\VIDEO_TS.IFO
Формат : DVD Video
Профиль формата : Menu
Размер файла : 16,0 Кбайт
Режим общего битрейта : Переменный
Видео
Идентификатор : 224 (0xE0)
Формат : MPEG Video
Версия формата : Version 1
Вид битрейта : Переменный
Ширина : 720 пикселей
Высота : 480 пикселей
Соотношение сторон : 4:3
Частота кадров : 29,970 (29970/1000) кадров/сек
Стандарт вещания : NTSC
Метод сжатия : С потерями
Общее
Полное имя : C:\Users\Roman\Звездный отряд Война на Марсе\crf\Crimson force\VTS_01_0.BUP
Формат : DVD Video
Профиль формата : Program
Размер файла : 84,0 Кбайт
Продолжительность : 1 ч. 31 м.
Режим общего битрейта : Переменный
Общий поток : 125 бит/сек
FileExtension_Invalid : ifo
Видео
Идентификатор : 224 (0xE0)
Формат : MPEG Video
Версия формата : Version 2
Продолжительность : 1 ч. 31 м.
Вид битрейта : Переменный
Ширина : 720 пикселей
Высота : 480 пикселей
Соотношение сторон : 16:9
Частота кадров : 29,970 (29970/1000) кадров/сек
Стандарт вещания : NTSC
Метод сжатия : С потерями
Аудио #1
Идентификатор : 128 (0x80)
Формат : AC-3
Формат/Информация : Audio Coding 3
Продолжительность : 1 ч. 31 м.
Каналы : 2 канала
Частота : 48,0 КГц
Метод сжатия : С потерями
Аудио #2
Идентификатор : 129 (0x81)
Формат : AC-3
Формат/Информация : Audio Coding 3
Продолжительность : 1 ч. 31 м.
Каналы : 2 канала
Частота : 48,0 КГц
Метод сжатия : С потерями
Меню #1
Продолжительность : 1 ч. 31 м.
00:00:00.000 : Chapter 1
00:06:09.566 : Chapter 2
00:14:52.932 : Chapter 3
00:24:11.732 : Chapter 4
00:35:45.665 : Chapter 5
00:48:59.231 : Chapter 6
01:00:16.664 : Chapter 7
01:13:19.730 : Chapter 8
01:27:13.130 : Chapter 9
01:29:58.430 : Chapter 10
01:31:30.496 : Chapter 11
List (Audio) : 0 / 1
Меню #2
Продолжительность : 1 ч. 31 м.
00:00:00.000 : Chapter 1
00:00:15.000 : Chapter 2
00:00:23.120 : Chapter 3
00:00:50.120 : Chapter 4
00:01:34.120 : Chapter 5
00:02:00.120 : Chapter 6
00:02:28.120 : Chapter 7
00:02:44.120 : Chapter 8
00:02:57.640 : Chapter 9
00:02:59.840 : Chapter 10
00:03:32.840 : Chapter 11
List (Audio) : 1
Меню #3
Общее
Полное имя : C:\Users\Roman\Звездный отряд Война на Марсе\crf\Crimson force\VTS_01_0.IFO
Формат : DVD Video
Профиль формата : Program
Размер файла : 84,0 Кбайт
Продолжительность : 1 ч. 31 м.
Режим общего битрейта : Переменный
Общий поток : 125 бит/сек
Видео
Идентификатор : 224 (0xE0)
Формат : MPEG Video
Версия формата : Version 2
Продолжительность : 1 ч. 31 м.
Вид битрейта : Переменный
Ширина : 720 пикселей
Высота : 480 пикселей
Соотношение сторон : 16:9
Частота кадров : 29,970 (29970/1000) кадров/сек
Стандарт вещания : NTSC
Метод сжатия : С потерями
Аудио #1
Идентификатор : 128 (0x80)
Формат : AC-3
Формат/Информация : Audio Coding 3
Продолжительность : 1 ч. 31 м.
Каналы : 2 канала
Частота : 48,0 КГц
Метод сжатия : С потерями
Аудио #2
Идентификатор : 129 (0x81)
Формат : AC-3
Формат/Информация : Audio Coding 3
Продолжительность : 1 ч. 31 м.
Каналы : 2 канала
Частота : 48,0 КГц
Метод сжатия : С потерями
Меню #1
Продолжительность : 1 ч. 31 м.
00:00:00.000 : Chapter 1
00:06:09.566 : Chapter 2
00:14:52.932 : Chapter 3
00:24:11.732 : Chapter 4
00:35:45.665 : Chapter 5
00:48:59.231 : Chapter 6
01:00:16.664 : Chapter 7
01:13:19.730 : Chapter 8
01:27:13.130 : Chapter 9
01:29:58.430 : Chapter 10
01:31:30.496 : Chapter 11
List (Audio) : 0 / 1
Меню #2
Продолжительность : 1 ч. 31 м.
00:00:00.000 : Chapter 1
00:00:15.000 : Chapter 2
00:00:23.120 : Chapter 3
00:00:50.120 : Chapter 4
00:01:34.120 : Chapter 5
00:02:00.120 : Chapter 6
00:02:28.120 : Chapter 7
00:02:44.120 : Chapter 8
00:02:57.640 : Chapter 9
00:02:59.840 : Chapter 10
00:03:32.840 : Chapter 11
List (Audio) : 1
Меню #3
Общее
Полное имя : C:\Users\Roman\Звездный отряд Война на Марсе\crf\Crimson force\VTS_01_0.VOB
Формат : MPEG-PS
Размер файла : 11,1 Мбайт
Продолжительность : 2 с. 2 мс.
Режим общего битрейта : Переменный
Общий поток : 46,3 Мбит/сек
Видео
Идентификатор : 224 (0xE0)
Формат : MPEG Video
Версия формата : Version 2
Профиль формата : Main@Main
Параметр BVOP формата : Да
Параметр матрицы формата : Выборочная
Параметр GOP формата : Variable
Продолжительность : 2 с. 2 мс.
Вид битрейта : Переменный
Битрейт : 45,4 Мбит/сек
Ширина : 720 пикселей
Высота : 480 пикселей
Соотношение сторон : 16:9
Частота кадров : 29,970 (30000/1001) кадров/сек
Стандарт вещания : NTSC
Цветовое пространство : YUV
Субдискретизация насыщенности : 4:2:0
Битовая глубина : 8 бит
Метод сжатия : С потерями
Бит/(Пиксели*Кадры) : 4.385
Размер потока : 10,8 Мбайт (98%)
Основные цвета : BT.601 NTSC
Характеристики трансфера : BT.601
Коэффициенты матрицы : BT.601
Текст #1
Идентификатор : 189 (0xBD)-32 (0x20)
Формат : RLE
Формат/Информация : Run-length encoding
Режим смешивания : DVD-Video
Текст #2
Идентификатор : 189 (0xBD)-33 (0x21)
Формат : RLE
Формат/Информация : Run-length encoding
Режим смешивания : DVD-Video
Меню
Общее
Полное имя : C:\Users\Roman\Звездный отряд Война на Марсе\crf\Crimson force\VTS_01_1.VOB
Формат : MPEG-PS
Размер файла : 1024 Мбайт
Продолжительность : 25 м. 21 с.
Режим общего битрейта : Переменный
Общий поток : 5645 Кбит/сек
Видео
Идентификатор : 224 (0xE0)
Формат : MPEG Video
Версия формата : Version 2
Профиль формата : Main@Main
Параметр BVOP формата : Да
Параметр матрицы формата : Выборочная
Параметр GOP формата : Variable
Структура изображения : Frame
Продолжительность : 25 м. 21 с.
Вид битрейта : Переменный
Битрейт : 5148 Кбит/сек
Максимальный битрейт : 9800 Кбит/сек
Ширина : 720 пикселей
Высота : 480 пикселей
Соотношение сторон : 16:9
Частота кадров : 29,970 (30000/1001) кадров/сек
Стандарт вещания : NTSC
Цветовое пространство : YUV
Субдискретизация насыщенности : 4:2:0
Битовая глубина : 8 бит
Тип развёртки : Чересстрочная
Порядок развёртки : Верхнее поле первое
Метод сжатия : С потерями
Бит/(Пиксели*Кадры) : 0.497
Временной код первого кадра : 00:59:59;00
Оригинал временного кода : Group of pictures header
Размер потока : 934 Мбайт (91%)
Аудио #1
Идентификатор : 189 (0xBD)-128 (0x80)
Формат : AC-3
Формат/Информация : Audio Coding 3
Параметр Endianness формата : Big
Режим смешивания : DVD-Video
Продолжительность : 25 м. 21 с.
Вид битрейта : Постоянный
Битрейт : 192 Кбит/сек
Каналы : 2 канала
Расположение каналов : Front: L R
Частота : 48,0 КГц
Частота кадров : 31,250 кадров/сек (1536 spf)
Битовая глубина : 16 бит
Метод сжатия : С потерями
Размер потока : 34,8 Мбайт (3%)
ServiceKind/String : Complete Main
Аудио #2
Идентификатор : 189 (0xBD)-129 (0x81)
Формат : AC-3
Формат/Информация : Audio Coding 3
Параметр Endianness формата : Big
Режим смешивания : DVD-Video
Продолжительность : 25 м. 21 с.
Вид битрейта : Постоянный
Битрейт : 192 Кбит/сек
Каналы : 2 канала
Расположение каналов : Front: L R
Частота : 48,0 КГц
Частота кадров : 31,250 кадров/сек (1536 spf)
Битовая глубина : 16 бит
Метод сжатия : С потерями
Размер потока : 34,8 Мбайт (3%)
ServiceKind/String : Complete Main
Меню
Общее
Полное имя : C:\Users\Roman\Звездный отряд Война на Марсе\crf\Crimson force\VTS_01_2.VOB
Формат : MPEG-PS
Размер файла : 1024 Мбайт
Продолжительность : 23 м. 37 с.
Режим общего битрейта : Переменный
Общий поток : 6060 Кбит/сек
Видео
Идентификатор : 224 (0xE0)
Формат : MPEG Video
Версия формата : Version 2
Профиль формата : Main@Main
Параметр BVOP формата : Да
Параметр матрицы формата : Выборочная
Параметр GOP формата : Variable
Структура изображения : Frame
Продолжительность : 23 м. 37 с.
Вид битрейта : Переменный
Битрейт : 5556 Кбит/сек
Максимальный битрейт : 9800 Кбит/сек
Ширина : 720 пикселей
Высота : 480 пикселей
Соотношение сторон : 16:9
Частота кадров : 29,970 (30000/1001) кадров/сек
Стандарт вещания : NTSC
Цветовое пространство : YUV
Субдискретизация насыщенности : 4:2:0
Битовая глубина : 8 бит
Тип развёртки : Чересстрочная
Порядок развёртки : Верхнее поле первое
Метод сжатия : С потерями
Бит/(Пиксели*Кадры) : 0.536
Временной код первого кадра : 01:25:20;24
Оригинал временного кода : Group of pictures header
Размер потока : 939 Мбайт (92%)
Аудио #1
Идентификатор : 189 (0xBD)-128 (0x80)
Формат : AC-3
Формат/Информация : Audio Coding 3
Параметр Endianness формата : Big
Режим смешивания : DVD-Video
Продолжительность : 23 м. 37 с.
Вид битрейта : Постоянный
Битрейт : 192 Кбит/сек
Каналы : 2 канала
Расположение каналов : Front: L R
Частота : 48,0 КГц
Частота кадров : 31,250 кадров/сек (1536 spf)
Битовая глубина : 16 бит
Метод сжатия : С потерями
Задержка видео : -27 мс.
Размер потока : 32,4 Мбайт (3%)
ServiceKind/String : Complete Main
Аудио #2
Идентификатор : 189 (0xBD)-129 (0x81)
Формат : AC-3
Формат/Информация : Audio Coding 3
Параметр Endianness формата : Big
Режим смешивания : DVD-Video
Продолжительность : 23 м. 37 с.
Вид битрейта : Постоянный
Битрейт : 192 Кбит/сек
Каналы : 2 канала
Расположение каналов : Front: L R
Частота : 48,0 КГц
Частота кадров : 31,250 кадров/сек (1536 spf)
Битовая глубина : 16 бит
Метод сжатия : С потерями
Задержка видео : -27 мс.
Размер потока : 32,4 Мбайт (3%)
ServiceKind/String : Complete Main
Меню
Общее
Полное имя : C:\Users\Roman\Звездный отряд Война на Марсе\crf\Crimson force\VTS_01_3.VOB
Формат : MPEG-PS
Размер файла : 1024 Мбайт
Продолжительность : 23 м. 43 с.
Режим общего битрейта : Переменный
Общий поток : 6033 Кбит/сек
Видео
Идентификатор : 224 (0xE0)
Формат : MPEG Video
Версия формата : Version 2
Профиль формата : Main@Main
Параметр BVOP формата : Да
Параметр матрицы формата : Выборочная
Параметр GOP формата : Variable
Структура изображения : Frame
Продолжительность : 23 м. 43 с.
Вид битрейта : Переменный
Битрейт : 5529 Кбит/сек
Максимальный битрейт : 9800 Кбит/сек
Ширина : 720 пикселей
Высота : 480 пикселей
Соотношение сторон : 16:9
Частота кадров : 29,970 (30000/1001) кадров/сек
Стандарт вещания : NTSC
Цветовое пространство : YUV
Субдискретизация насыщенности : 4:2:0
Битовая глубина : 8 бит
Тип развёртки : Чересстрочная
Порядок развёртки : Верхнее поле первое
Метод сжатия : С потерями
Бит/(Пиксели*Кадры) : 0.534
Временной код первого кадра : 01:48:58;16
Оригинал временного кода : Group of pictures header
Размер потока : 938 Мбайт (92%)
Аудио #1
Идентификатор : 189 (0xBD)-128 (0x80)
Формат : AC-3
Формат/Информация : Audio Coding 3
Параметр Endianness формата : Big
Режим смешивания : DVD-Video
Продолжительность : 23 м. 43 с.
Вид битрейта : Постоянный
Битрейт : 192 Кбит/сек
Каналы : 2 канала
Расположение каналов : Front: L R
Частота : 48,0 КГц
Частота кадров : 31,250 кадров/сек (1536 spf)
Битовая глубина : 16 бит
Метод сжатия : С потерями
Задержка видео : -435 мс.
Размер потока : 32,6 Мбайт (3%)
ServiceKind/String : Complete Main
Аудио #2
Идентификатор : 189 (0xBD)-129 (0x81)
Формат : AC-3
Формат/Информация : Audio Coding 3
Параметр Endianness формата : Big
Режим смешивания : DVD-Video
Продолжительность : 23 м. 43 с.
Вид битрейта : Постоянный
Битрейт : 192 Кбит/сек
Каналы : 2 канала
Расположение каналов : Front: L R
Частота : 48,0 КГц
Частота кадров : 31,250 кадров/сек (1536 spf)
Битовая глубина : 16 бит
Метод сжатия : С потерями
Задержка видео : -435 мс.
Размер потока : 32,6 Мбайт (3%)
ServiceKind/String : Complete Main
Меню
Общее
Полное имя : C:\Users\Roman\Звездный отряд Война на Марсе\crf\Crimson force\VTS_01_4.VOB
Формат : MPEG-PS
Размер файла : 859 Мбайт
Продолжительность : 18 м. 53 с.
Режим общего битрейта : Переменный
Общий поток : 6360 Кбит/сек
Видео
Идентификатор : 224 (0xE0)
Формат : MPEG Video
Версия формата : Version 2
Профиль формата : Main@Main
Параметр BVOP формата : Да
Параметр матрицы формата : Выборочная
Параметр GOP формата : Variable
Структура изображения : Frame
Продолжительность : 18 м. 52 с.
Вид битрейта : Переменный
Битрейт : 5849 Кбит/сек
Максимальный битрейт : 9800 Кбит/сек
Ширина : 720 пикселей
Высота : 480 пикселей
Соотношение сторон : 16:9
Частота кадров : 29,970 (30000/1001) кадров/сек
Стандарт вещания : NTSC
Цветовое пространство : YUV
Субдискретизация насыщенности : 4:2:0
Битовая глубина : 8 бит
Тип развёртки : Чересстрочная
Порядок развёртки : Верхнее поле первое
Метод сжатия : С потерями
Бит/(Пиксели*Кадры) : 0.565
Временной код первого кадра : 02:12:42;07
Оригинал временного кода : Group of pictures header
GOP, открыто/закрыто : Открыто
Размер потока : 790 Мбайт (92%)
Аудио #1
Идентификатор : 189 (0xBD)-128 (0x80)
Формат : AC-3
Формат/Информация : Audio Coding 3
Параметр Endianness формата : Big
Режим смешивания : DVD-Video
Продолжительность : 18 м. 53 с.
Вид битрейта : Постоянный
Битрейт : 192 Кбит/сек
Каналы : 2 канала
Расположение каналов : Front: L R
Частота : 48,0 КГц
Частота кадров : 31,250 кадров/сек (1536 spf)
Битовая глубина : 16 бит
Метод сжатия : С потерями
Задержка видео : -350 мс.
Размер потока : 25,9 Мбайт (3%)
ServiceKind/String : Complete Main
Аудио #2
Идентификатор : 189 (0xBD)-129 (0x81)
Формат : AC-3
Формат/Информация : Audio Coding 3
Параметр Endianness формата : Big
Режим смешивания : DVD-Video
Продолжительность : 18 м. 53 с.
Вид битрейта : Постоянный
Битрейт : 192 Кбит/сек
Каналы : 2 канала
Расположение каналов : Front: L R
Частота : 48,0 КГц
Частота кадров : 31,250 кадров/сек (1536 spf)
Битовая глубина : 16 бит
Метод сжатия : С потерями
Задержка видео : -350 мс.
Размер потока : 25,9 Мбайт (3%)
ServiceKind/String : Complete Main
Меню
Общее
Полное имя : C:\Users\Roman\Звездный отряд Война на Марсе\crf\Crimson force\VTS_02_0.BUP
Формат : DVD Video
Профиль формата : Program
Размер файла : 18,0 Кбайт
Продолжительность : 38 с. 533 мс.
Режим общего битрейта : Переменный
Общий поток : 3827 бит/сек
FileExtension_Invalid : ifo
Видео
Идентификатор : 224 (0xE0)
Формат : MPEG Video
Версия формата : Version 2
Продолжительность : 38 с. 539 мс.
Вид битрейта : Переменный
Ширина : 720 пикселей
Высота : 480 пикселей
Соотношение сторон : 16:9
Частота кадров : 29,970 (29970/1000) кадров/сек
Стандарт вещания : NTSC
Метод сжатия : С потерями
Аудио
Идентификатор : 128 (0x80)
Формат : AC-3
Формат/Информация : Audio Coding 3
Продолжительность : 38 с. 533 мс.
Каналы : 6 каналов
Частота : 48,0 КГц
Метод сжатия : С потерями
Меню
Продолжительность : 38 с. 533 мс.
00:00:00.000 : Chapter 1
00:00:38.033 : Chapter 2
List (Audio) : 0
Общее
Полное имя : C:\Users\Roman\Звездный отряд Война на Марсе\crf\Crimson force\VTS_02_0.IFO
Формат : DVD Video
Профиль формата : Program
Размер файла : 18,0 Кбайт
Продолжительность : 38 с. 533 мс.
Режим общего битрейта : Переменный
Общий поток : 3827 бит/сек
Видео
Идентификатор : 224 (0xE0)
Формат : MPEG Video
Версия формата : Version 2
Продолжительность : 38 с. 539 мс.
Вид битрейта : Переменный
Ширина : 720 пикселей
Высота : 480 пикселей
Соотношение сторон : 16:9
Частота кадров : 29,970 (29970/1000) кадров/сек
Стандарт вещания : NTSC
Метод сжатия : С потерями
Аудио
Идентификатор : 128 (0x80)
Формат : AC-3
Формат/Информация : Audio Coding 3
Продолжительность : 38 с. 533 мс.
Каналы : 6 каналов
Частота : 48,0 КГц
Метод сжатия : С потерями
Меню
Продолжительность : 38 с. 533 мс.
00:00:00.000 : Chapter 1
00:00:38.033 : Chapter 2
List (Audio) : 0
Общее
Полное имя : C:\Users\Roman\Звездный отряд Война на Марсе\crf\Crimson force\VTS_02_0.VOB
Формат : MPEG-PS
Размер файла : 114 Кбайт
Продолжительность : 467 мс.
Общий поток : 2000 Кбит/сек
Видео
Идентификатор : 224 (0xE0)
Формат : MPEG Video
Версия формата : Version 2
Профиль формата : Main@Main
Параметр BVOP формата : Да
Параметр матрицы формата : Выборочная
Структура изображения : Frame
Продолжительность : 467 мс.
Вид битрейта : Постоянный
Максимальный битрейт : 2000 Кбит/сек
Ширина : 720 пикселей
Высота : 480 пикселей
Соотношение сторон : 4:3
Частота кадров : 29,970 (30000/1001) кадров/сек
Стандарт вещания : NTSC
Цветовое пространство : YUV
Субдискретизация насыщенности : 4:2:0
Битовая глубина : 8 бит
Тип развёртки : Чересстрочная
Порядок развёртки : Верхнее поле первое
Метод сжатия : С потерями
Временной код первого кадра : 00:00:00:01
Оригинал временного кода : Group of pictures header
Текст
Идентификатор : 189 (0xBD)-32 (0x20)
Формат : RLE
Формат/Информация : Run-length encoding
Режим смешивания : DVD-Video
Меню
Общее
Полное имя : C:\Users\Roman\Звездный отряд Война на Марсе\crf\Crimson force\VTS_02_1.VOB
Формат : MPEG-PS
Размер файла : 19,2 Мбайт
Продолжительность : 38 с. 105 мс.
Режим общего битрейта : Переменный
Общий поток : 4237 Кбит/сек
Видео
Идентификатор : 224 (0xE0)
Формат : MPEG Video
Версия формата : Version 2
Профиль формата : Main@Main
Параметр BVOP формата : Да
Параметр матрицы формата : Выборочная
Параметр GOP формата : Variable
Структура изображения : Frame
Продолжительность : 38 с. 105 мс.
Вид битрейта : Переменный
Битрейт : 3705 Кбит/сек
Максимальный битрейт : 8200 Кбит/сек
Ширина : 720 пикселей
Высота : 480 пикселей
Соотношение сторон : 16:9
Частота кадров : 29,970 (30000/1001) кадров/сек
Стандарт вещания : NTSC
Цветовое пространство : YUV
Субдискретизация насыщенности : 4:2:0
Битовая глубина : 8 бит
Тип развёртки : Чересстрочная
Порядок развёртки : Верхнее поле первое
Метод сжатия : С потерями
Бит/(Пиксели*Кадры) : 0.358
Временной код первого кадра : 00:59:59;15
Оригинал временного кода : Group of pictures header
GOP, открыто/закрыто : Закрыто
Размер потока : 16,8 Мбайт (87%)
Аудио
Идентификатор : 189 (0xBD)-128 (0x80)
Формат : AC-3
Формат/Информация : Audio Coding 3
Параметр Endianness формата : Big
Режим смешивания : DVD-Video
Продолжительность : 38 с. 48 мс.
Вид битрейта : Постоянный
Битрейт : 448 Кбит/сек
Каналы : 6 каналов
Расположение каналов : Front: L C R, Side: L R, LFE
Частота : 48,0 КГц
Частота кадров : 31,250 кадров/сек (1536 spf)
Битовая глубина : 16 бит
Метод сжатия : С потерями
Размер потока : 2,03 Мбайт (11%)
ServiceKind/String : Complete Main
Меню
Общее
Полное имя : C:\Users\Roman\Звездный отряд Война на Марсе\crf\Crimson force\VTS_03_0.BUP
Формат : DVD Video
Профиль формата : Program
Размер файла : 18,0 Кбайт
Продолжительность : 3 м. 51 с.
Режим общего битрейта : Переменный
Общий поток : 638 бит/сек
FileExtension_Invalid : ifo
Видео
Идентификатор : 224 (0xE0)
Формат : MPEG Video
Версия формата : Version 2
Продолжительность : 3 м. 51 с.
Вид битрейта : Переменный
Ширина : 720 пикселей
Высота : 480 пикселей
Соотношение сторон : 16:9
Частота кадров : 29,970 (29970/1000) кадров/сек
Стандарт вещания : NTSC
Метод сжатия : С потерями
Аудио
Идентификатор : 128 (0x80)
Формат : AC-3
Формат/Информация : Audio Coding 3
Продолжительность : 3 м. 51 с.
Каналы : 2 канала
Частота : 48,0 КГц
Метод сжатия : С потерями
Меню
Продолжительность : 3 м. 51 с.
00:00:00.000 : Chapter 1
00:03:50.800 : Chapter 2
List (Audio) : 0
Общее
Полное имя : C:\Users\Roman\Звездный отряд Война на Марсе\crf\Crimson force\VTS_03_0.IFO
Формат : DVD Video
Профиль формата : Program
Размер файла : 18,0 Кбайт
Продолжительность : 3 м. 51 с.
Режим общего битрейта : Переменный
Общий поток : 638 бит/сек
Видео
Идентификатор : 224 (0xE0)
Формат : MPEG Video
Версия формата : Version 2
Продолжительность : 3 м. 51 с.
Вид битрейта : Переменный
Ширина : 720 пикселей
Высота : 480 пикселей
Соотношение сторон : 16:9
Частота кадров : 29,970 (29970/1000) кадров/сек
Стандарт вещания : NTSC
Метод сжатия : С потерями
Аудио
Идентификатор : 128 (0x80)
Формат : AC-3
Формат/Информация : Audio Coding 3
Продолжительность : 3 м. 51 с.
Каналы : 2 канала
Частота : 48,0 КГц
Метод сжатия : С потерями
Меню
Продолжительность : 3 м. 51 с.
00:00:00.000 : Chapter 1
00:03:50.800 : Chapter 2
List (Audio) : 0
Общее
Полное имя : C:\Users\Roman\Звездный отряд Война на Марсе\crf\Crimson force\VTS_03_0.VOB
Формат : MPEG-PS
Размер файла : 114 Кбайт
Продолжительность : 467 мс.
Общий поток : 2000 Кбит/сек
Видео
Идентификатор : 224 (0xE0)
Формат : MPEG Video
Версия формата : Version 2
Профиль формата : Main@Main
Параметр BVOP формата : Да
Параметр матрицы формата : Выборочная
Структура изображения : Frame
Продолжительность : 467 мс.
Вид битрейта : Постоянный
Максимальный битрейт : 2000 Кбит/сек
Ширина : 720 пикселей
Высота : 480 пикселей
Соотношение сторон : 4:3
Частота кадров : 29,970 (30000/1001) кадров/сек
Стандарт вещания : NTSC
Цветовое пространство : YUV
Субдискретизация насыщенности : 4:2:0
Битовая глубина : 8 бит
Тип развёртки : Чересстрочная
Порядок развёртки : Верхнее поле первое
Метод сжатия : С потерями
Временной код первого кадра : 00:00:00:01
Оригинал временного кода : Group of pictures header
Текст
Идентификатор : 189 (0xBD)-32 (0x20)
Формат : RLE
Формат/Информация : Run-length encoding
Режим смешивания : DVD-Video
Меню
Общее
Полное имя : C:\Users\Roman\Звездный отряд Война на Марсе\crf\Crimson force\VTS_03_1.VOB
Формат : MPEG-PS
Размер файла : 147 Мбайт
Продолжительность : 3 м. 51 с.
Режим общего битрейта : Переменный
Общий поток : 5332 Кбит/сек
Видео
Идентификатор : 224 (0xE0)
Формат : MPEG Video
Версия формата : Version 2
Профиль формата : Main@Main
Параметр BVOP формата : Да
Параметр матрицы формата : Выборочная
Параметр GOP формата : Variable
Структура изображения : Frame
Продолжительность : 3 м. 51 с.
Вид битрейта : Переменный
Битрейт : 5002 Кбит/сек
Максимальный битрейт : 9800 Кбит/сек
Ширина : 720 пикселей
Высота : 480 пикселей
Соотношение сторон : 16:9
Частота кадров : 29,970 (30000/1001) кадров/сек
Стандарт вещания : NTSC
Цветовое пространство : YUV
Субдискретизация насыщенности : 4:2:0
Битовая глубина : 8 бит
Тип развёртки : Чересстрочная
Порядок развёртки : Верхнее поле первое
Метод сжатия : С потерями
Бит/(Пиксели*Кадры) : 0.483
Временной код первого кадра : 00:59:59;00
Оригинал временного кода : Group of pictures header
Размер потока : 138 Мбайт (94%)
Аудио
Идентификатор : 189 (0xBD)-128 (0x80)
Формат : AC-3
Формат/Информация : Audio Coding 3
Параметр Endianness формата : Big
Режим смешивания : DVD-Video
Продолжительность : 3 м. 51 с.
Вид битрейта : Постоянный
Битрейт : 224 Кбит/сек
Каналы : 2 канала
Расположение каналов : Front: L R
Частота : 48,0 КГц
Частота кадров : 31,250 кадров/сек (1536 spf)
Битовая глубина : 16 бит
Метод сжатия : С потерями
Размер потока : 6,17 Мбайт (4%)
ServiceKind/String : Complete Main
Меню

Скриншоты




[Profile] [PM]

CROM@G ®

Gender: Male

Longevity: 5 years 5 months

Posts: 3592

Location: Прибалтика

Post 12-Mar-2017 08:36 (after 51 second)

[Quote]

О ептить получилось с первого раза.
[Profile] [PM]

kosmoaelita

Gender: Male

Longevity: 8 years 6 months

Posts: 1729

Post 12-Mar-2017 20:25 (after 11 hours)

[Quote]

Не совсем.
Папка с файлами должна называться VIDEO_TS, иначе ее не увидит проигрыватель ДВД
[Profile] [PM]

CROM@G ®

Gender: Male

Longevity: 5 years 5 months

Posts: 3592

Location: Прибалтика

Post 12-Mar-2017 20:28 (after 3 minutes)

[Quote]

kosmoaelita, Как то об этом не задумывался .Могу сказать единственное .BBK сожрет все.Буду знать .Хмммм.Залей на облако потом
[Profile] [PM]
Display posts:    
Reply to topic

Current time is: 02-Mar 14:44

All times are UTC + 3



You cannot post new topics in this forum
You cannot reply to topics in this forum
You cannot edit your posts in this forum
You cannot delete your posts in this forum
You cannot vote in polls in this forum
You cannot attach files in this forum
You cannot download files in this forum