В 2889 году / In the Year 2889 (Ларри Бьюкэнэн / Larry Buchanan) [1967 г., Фантастика, постапокалипсис, HDTVRip(1080р)] ЛО (kosmoaelita-RollingHead), СТ (Vargnatt)

Reply to topic
 
Author Message

admin ®

Gender: Male

Longevity: 7 years 2 months

Posts: 4721

Post 04-Oct-2012 22:21

[Quote]

В 2889 году / In the Year 2889
Релиз - kosmoaelita. com
Год выпуска: 1967
Страна: США
Жанр: Фантастика, постапокалипсис
Продолжительность: 01:20:07
Перевод 1: ЛО (kosmoaelita-RollingHead)
Перевод 2: Субтитры Vargnatt
Режиссер: Ларри Бьюкэнэн / Larry Buchanan
В ролях: Пол Петерсен, Куинн О’Хара, Чарла Доэрти, Нил Флетчер, Хью Фигин, Макс В. Андерсон, Билл Турман, Байрон Лорд
Описание: Ремейк фильма 1955 года Day the World Ended. Семья Рэмси выжила после ядерной бомбардировки в относительно безопасной долине, окруженной холмами из свинцовой руды. Нужно переждать некоторое время. Но еще несколько незваных гостей находят путь к его убежищу , да и мутанты все ближе и ближе...
Релиз

Качество: HDTVRip(1080р)
Формат: MKV
Видео: x264, 5068 кбит/с, 1440x1080, 23.976 к/с, crf=19.5
Аудио 1: Русский RollingHead (AC3, 2 ch, 192 Кбит/с)
Аудио 2: Английский (AC3, 2 ch, 192 Кбит/с)
Субтитры : Русские (Vargnatt), английские


Семпл русской озвучки

Релиз

Релиз kosmoaelita.com
Рип с HDTVRiр(1080p).mpeg - sasha20072007
Субтитры - Vargnatt
Озвучка по заказу kosmoaelita.com - RollingHead (Сергей Синица)
Сравнение с исходником 1080i HDTV DD2.0 MPEG2-TrollHD
Сравнение с рипом с CG
Для Украины: рип дополнительно залит в файлохранилище
Для удаления и добавления дорожек в mkv используйте бесплатную mkvmerge GUI 5.80

Дополнительно

Also Known As (AKA)
2889 (undefined)
Year 2889 USA (promotional title)

MediaInfo

Общее
Уникальный идентификатор : 235649505588008196278377528159958408527 (0xB14871A4B04ABCE1AC4DC8E6DC1F1D4F)
Полное имя : F:\V.2889.godu.1967.x264.HDTVRip.1080p.Rus.kosmoaelita.com.mkv
Формат : Matroska
Версия формата : Version 4 / Version 2
Размер файла : 3,11 Гбайт
Продолжительность : 1 ч. 20 м.
Общий поток : 5563 Кбит/сек
Название фильма : In The Year 2889 / 1967 / В 2889 году - rip by sasha20072007 (2012-10-25) www.kosmoaelita.com
Дата кодирования : UTC 2013-01-22 22:08:57
Программа кодирования : mkvmerge v6.0.0 ('Coming Up For Air') built on Jan 20 2013 09:52:00
Библиотека кодирования : libebml v1.3.0 + libmatroska v1.4.0
Attachment : Yes / Yes / Yes / Yes / Yes / Yes
Видео
Идентификатор : 1
Формат : AVC
Формат/Информация : Advanced Video Codec
Профиль формата : High@L4.1
Параметр CABAC формата : Да
Параметр ReFrames формата : 5 кадров
Идентификатор кодека : V_MPEG4/ISO/AVC
Продолжительность : 1 ч. 20 м.
Битрейт : 5069 Кбит/сек
Ширина : 1440 пикселей
Высота : 1080 пикселей
Соотношение сторон : 4:3
Режим частоты кадров : Постоянный
Частота кадров : 23,976 кадра/сек
Цветовое пространство : YUV
Субдискретизация насыщенности : 4:2:0
Битовая глубина : 8 бит
Тип развёртки : Прогрессивная
Бит/(Пиксели*Кадры) : 0.136
Размер потока : 2,84 Гбайт (91%)
Библиотека кодирования : x264 core 125 r2208 d9d2288
Настройки программы : cabac=1 / ref=5 / deblock=1:-3:-2 / analyse=0x3:0x133 / me=umh / subme=11 / psy=1 / psy_rd=1.00:0.15 / mixed_ref=1 / me_range=24 / chroma_me=1 / trellis=2 / 8x8dct=1 / cqm=0 / deadzone=21,11 / fast_pskip=1 / chroma_qp_offset=-3 / threads=4 / lookahead_threads=1 / sliced_threads=0 / nr=0 / decimate=1 / interlaced=0 / bluray_compat=0 / constrained_intra=0 / bframes=10 / b_pyramid=2 / b_adapt=2 / b_bias=0 / direct=1 / weightb=1 / open_gop=0 / weightp=2 / keyint=220 / keyint_min=22 / scenecut=40 / intra_refresh=0 / rc_lookahead=60 / rc=crf / mbtree=1 / crf=19.5 / qcomp=0.60 / qpmin=0 / qpmax=69 / qpstep=4 / vbv_maxrate=17500 / vbv_bufsize=14000 / crf_max=0.0 / nal_hrd=none / ip_ratio=1.35 / aq=1:0.80
Default : Да
Forced : Нет
Основные цвета : BT.709
Характеристики трансфера : BT.709
Коэффициенты матрицы : BT.709
Аудио #1
Идентификатор : 2
Формат : AC-3
Формат/Информация : Audio Coding 3
Расширение режима : CM (complete main)
Параметр Endianness формата : Big
Идентификатор кодека : A_AC3
Продолжительность : 1 ч. 20 м.
Вид битрейта : Постоянный
Битрейт : 192 Кбит/сек
Каналы : 2 канала
Расположение каналов : Front: L R
Частота : 48,0 КГц
Битовая глубина : 16 бит
Метод сжатия : С потерями
Размер потока : 110 Мбайт (3%)
Заголовок : Русский ЛО (kosmoaelita-RollingHead)
Язык : Russian
Default : Да
Forced : Да
Аудио #2
Идентификатор : 3
Формат : AC-3
Формат/Информация : Audio Coding 3
Расширение режима : CM (complete main)
Параметр Endianness формата : Big
Идентификатор кодека : A_AC3
Продолжительность : 1 ч. 20 м.
Вид битрейта : Постоянный
Битрейт : 192 Кбит/сек
Каналы : 2 канала
Расположение каналов : Front: L R
Частота : 48,0 КГц
Битовая глубина : 16 бит
Метод сжатия : С потерями
Размер потока : 110 Мбайт (3%)
Язык : English
Default : Нет
Forced : Нет
Текст #1
Идентификатор : 4
Формат : VobSub
Идентификатор кодека : S_VOBSUB
Идентификатор кодека/Информация : The same subtitle format used on DVDs
Заголовок : Русский (kosmoaelita.com) VobSub
Язык : Russian
Default : Да
Forced : Нет
Текст #2
Идентификатор : 5
Формат : UTF-8
Идентификатор кодека : S_TEXT/UTF8
Идентификатор кодека/Информация : UTF-8 Plain Text
Заголовок : Русский (kosmoaelita.com) srt
Язык : Russian
Default : Нет
Forced : Нет
Текст #3
Идентификатор : 6
Формат : UTF-8
Идентификатор кодека : S_TEXT/UTF8
Идентификатор кодека/Информация : UTF-8 Plain Text
Язык : English
Default : Нет
Forced : Нет
Меню
00:00:00.000 : en:01
00:05:00.233 : en:02
00:10:00.466 : en:03
00:15:10.933 : en:04
00:20:00.833 : en:05
00:25:00.333 : en:06
00:30:00.599 : en:07
00:35:00.266 : en:08
00:40:00.599 : en:09
00:45:00.000 : en:10
00:50:00.233 : en:11
00:55:00.466 : en:12
01:00:10.933 : en:13
01:10:00.833 : en:14
01:15:00.333 : en:15
01:20:00.599 : en:16
01:25:00.266 : en:17

Пример субтитров

1
00:00:12,794 --> 00:00:20,467
Релиз www. kosmoaelita. com
октябрь, 2012г.
2
00:00:22,794 --> 00:00:26,467
"Придет же день Господень,
3
00:00:26,502 --> 00:00:29,283
как тать ночью,
4
00:00:29,318 --> 00:00:36,163
и тогда небеса с шумом прейдут,
5
00:00:36,198 --> 00:00:40,997
стихии же, разгоревшись,
разрушатся,
6
00:00:41,032 --> 00:00:50,214
земля и все дела на ней сгорят".
"Евангелие от Петра, 3:10"
7
00:00:52,214 --> 00:00:57,010
"В 2889 году"
(In The Year 2889, 1967г)
8
00:01:30,010 --> 00:01:33,010
Счётчик Гейгера рядом со мной
9
00:01:33,122 --> 00:01:35,002
регистрирует 632 рентгена.
10
00:01:35,003 --> 00:01:38,400
Это в 6 раз превышает смертельный
для человека уровень.
11
00:01:39,614 --> 00:01:43,614
Многие столетия пророчества
предупреждали нас,
12
00:01:43,861 --> 00:01:46,656
что в один прекрасный день
13
00:01:46,691 --> 00:01:50,425
тысячи лет благоденствия
обернутся прахом.
14
00:01:50,460 --> 00:01:55,462
Этот день пришёл.
Связи с внешним миром нет.
15
00:01:55,733 --> 00:02:00,683
С момента падения первой ядерной
бомбы на Тайвань прошло 15 часов.
16
00:02:00,718 --> 00:02:05,449
Мир, выжженный ядерным огнём,
замолк.
17
00:02:06,293 --> 00:02:12,293
Три миллиарда человек сгорели
в адском пламени и радиоактивных осадках.
18
00:02:13,438 --> 00:02:17,428
Возможно, меня уже никто не слышит.
19
00:02:17,463 --> 00:02:21,419
И некому стать очевидцем конца света.
20
00:02:21,460 --> 00:02:30,024
Это был Тед Джонсон с K.B.G.E. - Radio.

Скриншоты



Файл дополнительно залит на ОБЛАКО


Last edited by admin on 2013-05-09 11:30; edited 8 times in total
[Profile] [PM]

admin ®

Gender: Male

Longevity: 7 years 2 months

Posts: 4721

Post 23-Jan-2013 01:27 (after 3 months 18 days)

[Quote]

Добавлена русская озвучка
[Profile] [PM]

berilliy

Gender: Unknown

Post 10-Feb-2013 00:47 (after 17 days)

[Quote]

Спасибо.
 
Quick Reply

Name:

            
Heads necessary to send messages to enable JavaScript
Display posts:    
Reply to topic

Current time is: 22-Nov 09:59

All times are UTC + 3



You cannot post new topics in this forum
You can reply to topics in this forum
You cannot edit your posts in this forum
You cannot delete your posts in this forum
You cannot vote in polls in this forum
You cannot attach files in this forum
You cannot download files in this forum