Страйкер / Stryker (Сирио Сантьяго / Cirio H. Santiago) [1983, Филиппины, Боевик, Фантастика, Постапокалипсис, BDRip] (Авторский (одноголосый) Вячеслав Котов) (ЛО : (NezPerce) по субтитрам от steelhawk) (Sub Rus)

Reply to topic
 
Author Message

AlexNT60 ®

Gender: Male

Longevity: 6 years 3 months

Posts: 97

Location: СПб

Post 01-Mar-2017 17:23

[Quote]

Страйкер / Stryker
Страна: Филиппины
Жанр: Боевик, Фантастика, Постапокалипсис
Год выпуска: 1983
Продолжительность: 01:23:41
Перевод 1: Авторский (одноголосый) Вячеслав Котов
Перевод 2: Любительский (одноголосый) (NezPerce) по субтитрам от steelhawk
Cубтитры: русские (steelhawk ©), английские
Режиссер: Сирио Сантьяго / Cirio H. Santiago
В ролях: Пол Хюбшмит, Паола Реймонд, Сесил Кэллауэй, Кеннет Тоби, Дональд Вудс, Ли Ван Клиф, Стив Броди, Росс Эллиотт, Джек Пенник, Рэй Хайк
Описание: Постапокаллиптический мир. Наша планета через много лет после ядерной войны. Самое ценное вещество на планете - вода. Банда Кардиса держат в страхе всю территорию пустошей, и только армия Труна, может противостоять ему. К Труну в плен случайно попадает девушка из коммуны, которая нашла неиссякаемый источник воды далеко в горах. Про это случайно узнает Кардис. Битва за воду начинается...
Качество видео: BDRip
Формат видео: MKV
Видео: x264, 5800 кбит/с, 1280x720, 23.976 к/с
Аудио 1: Русский AVO (В.Котов) (AC3, 2 ch, 192 Кбит/с)
Аудио 2: Русский ЛО (NezPerce) (AC3, 2 ch, 192 Кбит/с)
Аудио 3: Английский (AC3, 2 ch, 192 Кбит/с)
Аудио 4: Английский комментарии (AC3, 2 ch, 256 Кбит/с)
Формат субтитров: softsub (SRT)
Доп. информация о субтитрах: Русские (steelhawk ©), английские

MediaInfo

General
Unique ID : 249291876699898372805301599194568373328 (0xBB8BDE78489BC885BB0DD5B0B0BEB450)
Complete name : F:\Torrent\Stryker.1983.720p.BluRay.x264.mkv
Format : Matroska
Format version : Version 4 / Version 2
File size : 3.84 GiB
Duration : 1h 23mn
Overall bit rate : 6 568 Kbps
Movie name : Stryker (1983)
Encoded date : UTC 2017-03-01 13:57:17
Writing application : mkvmerge v9.0.1 ('Obstacles') 64bit
Writing library : libebml v1.3.3 + libmatroska v1.4.4
Attachements : Cover.png
DURATION : 01:22:12.148000000
NUMBER_OF_FRAMES : 256
NUMBER_OF_BYTES : 9657
_STATISTICS_WRITING_APP : mkvmerge v9.0.1 ('Obstacles') 64bit
_STATISTICS_WRITING_DATE_UTC : 2017-03-01 13:57:17
_STATISTICS_TAGS : BPS DURATION NUMBER_OF_FRAMES NUMBER_OF_BYTES
Video
ID : 1
Format : AVC
Format/Info : Advanced Video Codec
Format profile : High@L4.0
Format settings, CABAC : Yes
Format settings, ReFrames : 8 frames
Codec ID : V_MPEG4/ISO/AVC
Bit rate : 5 800 Kbps
Width : 1 280 pixels
Height : 720 pixels
Display aspect ratio : 16:9
Frame rate mode : Variable
Color space : YUV
Chroma subsampling : 4:2:0
Bit depth : 8 bits
Scan type : Progressive
Writing library : x264 core 146 r2538M 121396c
Encoding settings : cabac=1 / ref=8 / deblock=1:0:0 / analyse=0x3:0x133 / me=umh / subme=9 / psy=1 / psy_rd=1.00:0.00 / mixed_ref=1 / me_range=16 / chroma_me=1 / trellis=2 / 8x8dct=1 / cqm=0 / deadzone=21,11 / fast_pskip=1 / chroma_qp_offset=-2 / threads=9 / lookahead_threads=1 / sliced_threads=0 / nr=0 / decimate=1 / interlaced=0 / bluray_compat=0 / constrained_intra=0 / bframes=3 / b_pyramid=2 / b_adapt=2 / b_bias=0 / direct=3 / weightb=1 / open_gop=0 / weightp=2 / keyint=250 / keyint_min=23 / scenecut=40 / intra_refresh=0 / rc_lookahead=60 / rc=abr / mbtree=1 / bitrate=5800 / ratetol=1.0 / qcomp=0.60 / qpmin=0 / qpmax=69 / qpstep=4 / ip_ratio=1.40 / aq=1:1.00
Default : Yes
Forced : No
DURATION : 01:23:40.642000000
NUMBER_OF_FRAMES : 120374
NUMBER_OF_BYTES : 3596748184
_STATISTICS_WRITING_APP : mkvmerge v9.0.1 ('Obstacles') 64bit
_STATISTICS_WRITING_DATE_UTC : 2017-03-01 13:57:17
_STATISTICS_TAGS : BPS DURATION NUMBER_OF_FRAMES NUMBER_OF_BYTES
Audio #1
ID : 2
Format : AC-3
Format/Info : Audio Coding 3
Mode extension : CM (complete main)
Format settings, Endianness : Big
Codec ID : A_AC3
Duration : 1h 23mn
Bit rate mode : Constant
Bit rate : 192 Kbps
Channel(s) : 2 channels
Channel positions : Front: L R
Sampling rate : 48.0 KHz
Bit depth : 16 bits
Compression mode : Lossy
Stream size : 115 MiB (3%)
Title : AVO (В.Котов)
Language : Russian
Default : Yes
Forced : No
Audio #2
ID : 3
Format : AC-3
Format/Info : Audio Coding 3
Mode extension : CM (complete main)
Format settings, Endianness : Big
Codec ID : A_AC3
Duration : 1h 23mn
Bit rate mode : Constant
Bit rate : 192 Kbps
Channel(s) : 2 channels
Channel positions : Front: L R
Sampling rate : 48.0 KHz
Bit depth : 16 bits
Compression mode : Lossy
Stream size : 115 MiB (3%)
Title : VO (NezPerce)
Language : Russian
Default : No
Forced : No
Audio #3
ID : 4
Format : AC-3
Format/Info : Audio Coding 3
Mode extension : CM (complete main)
Format settings, Endianness : Big
Codec ID : A_AC3
Duration : 1h 23mn
Bit rate mode : Constant
Bit rate : 192 Kbps
Channel(s) : 2 channels
Channel positions : Front: L R
Sampling rate : 48.0 KHz
Bit depth : 16 bits
Compression mode : Lossy
Stream size : 115 MiB (3%)
Language : English
Default : No
Forced : No
Audio #4
ID : 5
Format : AC-3
Format/Info : Audio Coding 3
Mode extension : CM (complete main)
Format settings, Endianness : Big
Codec ID : A_AC3
Duration : 1h 23mn
Bit rate mode : Constant
Bit rate : 256 Kbps
Channel(s) : 2 channels
Channel positions : Front: L R
Sampling rate : 48.0 KHz
Bit depth : 16 bits
Compression mode : Lossy
Stream size : 153 MiB (4%)
Title : Comment
Language : English
Default : No
Forced : No
Text #1
ID : 6
Format : UTF-8
Codec ID : S_TEXT/UTF8
Codec ID/Info : UTF-8 Plain Text
Title : (Steelhawk)
Language : Russian
Default : Yes
Forced : No
Text #2
ID : 7
Format : UTF-8
Codec ID : S_TEXT/UTF8
Codec ID/Info : UTF-8 Plain Text
Language : English
Default : No
Forced : No

Скриншоты





Last edited by AlexNT60 on 2017-03-02 00:48; edited 1 time in total
[Profile] [PM]

Djon88SS

Gender: Male

Longevity: 5 years 5 months

Posts: 750

Post 01-Mar-2017 22:44 (after 5 hours)

[Quote]

Надо бы на облако залить. Так как не качает.
[Profile] [PM]

AlexNT60 ®

Gender: Male

Longevity: 6 years 3 months

Posts: 97

Location: СПб

Post 02-Mar-2017 00:50 (after 2 hours 6 minutes)

[Quote]

18551Так как не качает.
Заменил ТФ.
[Profile] [PM]

croMAG

Gender: Male

Longevity: 3 years 8 months

Posts: 2137

Location: Прибалтика

Post 02-Mar-2017 01:12 (after 21 minute)

[Quote]

Это проблему скорей всего не решит .
[Profile] [PM]

kosmoaelita

Gender: Male

Longevity: 6 years 8 months

Posts: 965

Location: Украина

Post 03-Mar-2017 11:29 (after 1 day 10 hours)

[Quote]

У меня качает
[Profile] [PM]

croMAG

Gender: Male

Longevity: 3 years 8 months

Posts: 2137

Location: Прибалтика

Post 03-Mar-2017 11:46 (after 16 minutes)

[Quote]

kosmoaelita, У Джона что то с тырнетом .У него постоянно фигово тянет.
[Profile] [PM]

Djon88SS

Gender: Male

Longevity: 5 years 5 months

Posts: 750

Post 05-Mar-2017 01:15 (after 1 day 13 hours)

[Quote]

С админа раньше скачивалось нормально, а с космоаэлиты не качает. С рутрекера всё нормально скачивается. Так что лучше залить так как пиры не находятся почему-то.
[Profile] [PM]

croMAG

Gender: Male

Longevity: 3 years 8 months

Posts: 2137

Location: Прибалтика

Post 05-Mar-2017 02:18 (after 1 hour 3 minutes)

[Quote]

Да трекер ебанутый Со всех нормально идет а тут хуйня твориться Со срульни пашет, с кинозала пашет, с рутора пашет, с твваулт чуток задерживается но там пиндостан а тут злоебучесть . Другого слова не подберешь
[Profile] [PM]

Djon88SS

Gender: Male

Longevity: 5 years 5 months

Posts: 750

Post 14-Mar-2017 03:08 (after 9 days)

[Quote]

Так желательно всё заливать тогда. Ссылку то и через приват можно скинуть если что.
[Profile] [PM]
Display posts:    
Reply to topic

Current time is: 26-May 10:43

All times are UTC + 3



You cannot post new topics in this forum
You cannot reply to topics in this forum
You cannot edit your posts in this forum
You cannot delete your posts in this forum
You cannot vote in polls in this forum
You cannot attach files in this forum
You cannot download files in this forum