Страйкер / Stryker (Сирио Сантьяго / Cirio H. Santiago) [1983, Филиппины, Боевик, Фантастика, Постапокалипсис, BDRip] (Авторский (одноголосый) Вячеслав Котов) (ЛО : (NezPerce) по субтитрам от steelhawk) (Sub Rus)

Ответить на тему
 
Автор Сообщение

AlexNT60 ®

Пол: Мужской

Стаж: 4 года 9 месяцев

Сообщений: 64

Откуда: СПб

Создавать темы 01-Мар-2017 17:53

[Цитировать]

Страйкер / Stryker
Страна: Филиппины
Жанр: Боевик, Фантастика, Постапокалипсис
Год выпуска: 1983
Продолжительность: 01:23:41
Перевод 1: Авторский (одноголосый) Вячеслав Котов
Перевод 2: Любительский (одноголосый) (NezPerce) по субтитрам от steelhawk
Cубтитры: русские (steelhawk ©), английские
Режиссер: Сирио Сантьяго / Cirio H. Santiago
В ролях: Пол Хюбшмит, Паола Реймонд, Сесил Кэллауэй, Кеннет Тоби, Дональд Вудс, Ли Ван Клиф, Стив Броди, Росс Эллиотт, Джек Пенник, Рэй Хайк
Описание: Постапокаллиптический мир. Наша планета через много лет после ядерной войны. Самое ценное вещество на планете - вода. Банда Кардиса держат в страхе всю территорию пустошей, и только армия Труна, может противостоять ему. К Труну в плен случайно попадает девушка из коммуны, которая нашла неиссякаемый источник воды далеко в горах. Про это случайно узнает Кардис. Битва за воду начинается...
Качество видео: BDRip
Формат видео: MKV
Видео: x264, 5800 кбит/с, 1280x720, 23.976 к/с
Аудио 1: Русский AVO (В.Котов) (AC3, 2 ch, 192 Кбит/с)
Аудио 2: Русский ЛО (NezPerce) (AC3, 2 ch, 192 Кбит/с)
Аудио 3: Английский (AC3, 2 ch, 192 Кбит/с)
Аудио 4: Английский комментарии (AC3, 2 ch, 256 Кбит/с)
Формат субтитров: softsub (SRT)
Доп. информация о субтитрах: Русские (steelhawk ©), английские

MediaInfo

General
Unique ID : 249291876699898372805301599194568373328 (0xBB8BDE78489BC885BB0DD5B0B0BEB450)
Complete name : F:\Torrent\Stryker.1983.720p.BluRay.x264.mkv
Format : Matroska
Format version : Version 4 / Version 2
File size : 3.84 GiB
Duration : 1h 23mn
Overall bit rate : 6 568 Kbps
Movie name : Stryker (1983)
Encoded date : UTC 2017-03-01 13:57:17
Writing application : mkvmerge v9.0.1 ('Obstacles') 64bit
Writing library : libebml v1.3.3 + libmatroska v1.4.4
Attachements : Cover.png
DURATION : 01:22:12.148000000
NUMBER_OF_FRAMES : 256
NUMBER_OF_BYTES : 9657
_STATISTICS_WRITING_APP : mkvmerge v9.0.1 ('Obstacles') 64bit
_STATISTICS_WRITING_DATE_UTC : 2017-03-01 13:57:17
_STATISTICS_TAGS : BPS DURATION NUMBER_OF_FRAMES NUMBER_OF_BYTES
Video
ID : 1
Format : AVC
Format/Info : Advanced Video Codec
Format profile : High@L4.0
Format settings, CABAC : Yes
Format settings, ReFrames : 8 frames
Codec ID : V_MPEG4/ISO/AVC
Bit rate : 5 800 Kbps
Width : 1 280 pixels
Height : 720 pixels
Display aspect ratio : 16:9
Frame rate mode : Variable
Color space : YUV
Chroma subsampling : 4:2:0
Bit depth : 8 bits
Scan type : Progressive
Writing library : x264 core 146 r2538M 121396c
Encoding settings : cabac=1 / ref=8 / deblock=1:0:0 / analyse=0x3:0x133 / me=umh / subme=9 / psy=1 / psy_rd=1.00:0.00 / mixed_ref=1 / me_range=16 / chroma_me=1 / trellis=2 / 8x8dct=1 / cqm=0 / deadzone=21,11 / fast_pskip=1 / chroma_qp_offset=-2 / threads=9 / lookahead_threads=1 / sliced_threads=0 / nr=0 / decimate=1 / interlaced=0 / bluray_compat=0 / constrained_intra=0 / bframes=3 / b_pyramid=2 / b_adapt=2 / b_bias=0 / direct=3 / weightb=1 / open_gop=0 / weightp=2 / keyint=250 / keyint_min=23 / scenecut=40 / intra_refresh=0 / rc_lookahead=60 / rc=abr / mbtree=1 / bitrate=5800 / ratetol=1.0 / qcomp=0.60 / qpmin=0 / qpmax=69 / qpstep=4 / ip_ratio=1.40 / aq=1:1.00
Default : Yes
Forced : No
DURATION : 01:23:40.642000000
NUMBER_OF_FRAMES : 120374
NUMBER_OF_BYTES : 3596748184
_STATISTICS_WRITING_APP : mkvmerge v9.0.1 ('Obstacles') 64bit
_STATISTICS_WRITING_DATE_UTC : 2017-03-01 13:57:17
_STATISTICS_TAGS : BPS DURATION NUMBER_OF_FRAMES NUMBER_OF_BYTES
Audio #1
ID : 2
Format : AC-3
Format/Info : Audio Coding 3
Mode extension : CM (complete main)
Format settings, Endianness : Big
Codec ID : A_AC3
Duration : 1h 23mn
Bit rate mode : Constant
Bit rate : 192 Kbps
Channel(s) : 2 channels
Channel positions : Front: L R
Sampling rate : 48.0 KHz
Bit depth : 16 bits
Compression mode : Lossy
Stream size : 115 MiB (3%)
Title : AVO (В.Котов)
Language : Russian
Default : Yes
Forced : No
Audio #2
ID : 3
Format : AC-3
Format/Info : Audio Coding 3
Mode extension : CM (complete main)
Format settings, Endianness : Big
Codec ID : A_AC3
Duration : 1h 23mn
Bit rate mode : Constant
Bit rate : 192 Kbps
Channel(s) : 2 channels
Channel positions : Front: L R
Sampling rate : 48.0 KHz
Bit depth : 16 bits
Compression mode : Lossy
Stream size : 115 MiB (3%)
Title : VO (NezPerce)
Language : Russian
Default : No
Forced : No
Audio #3
ID : 4
Format : AC-3
Format/Info : Audio Coding 3
Mode extension : CM (complete main)
Format settings, Endianness : Big
Codec ID : A_AC3
Duration : 1h 23mn
Bit rate mode : Constant
Bit rate : 192 Kbps
Channel(s) : 2 channels
Channel positions : Front: L R
Sampling rate : 48.0 KHz
Bit depth : 16 bits
Compression mode : Lossy
Stream size : 115 MiB (3%)
Language : English
Default : No
Forced : No
Audio #4
ID : 5
Format : AC-3
Format/Info : Audio Coding 3
Mode extension : CM (complete main)
Format settings, Endianness : Big
Codec ID : A_AC3
Duration : 1h 23mn
Bit rate mode : Constant
Bit rate : 256 Kbps
Channel(s) : 2 channels
Channel positions : Front: L R
Sampling rate : 48.0 KHz
Bit depth : 16 bits
Compression mode : Lossy
Stream size : 153 MiB (4%)
Title : Comment
Language : English
Default : No
Forced : No
Text #1
ID : 6
Format : UTF-8
Codec ID : S_TEXT/UTF8
Codec ID/Info : UTF-8 Plain Text
Title : (Steelhawk)
Language : Russian
Default : Yes
Forced : No
Text #2
ID : 7
Format : UTF-8
Codec ID : S_TEXT/UTF8
Codec ID/Info : UTF-8 Plain Text
Language : English
Default : No
Forced : No

Скриншоты





Последний раз редактировалось: AlexNT60 (2017-03-02 01:18), всего редактировалось 1 раз
[Профиль] [ЛС]

Djon88SS

Пол: Мужской

Стаж: 3 года 10 месяцев

Сообщений: 751

Создавать темы 01-Мар-2017 23:14 (спустя 5 часов)

[Цитировать]

Надо бы на облако залить. Так как не качает.
[Профиль] [ЛС]

AlexNT60 ®

Пол: Мужской

Стаж: 4 года 9 месяцев

Сообщений: 64

Откуда: СПб

Создавать темы 02-Мар-2017 01:20 (спустя 2 часа 6 минут)

[Цитировать]

18551Так как не качает.
Заменил ТФ.
[Профиль] [ЛС]

croMAG

Пол: Мужской

Стаж: 2 года 2 месяца

Сообщений: 1873

Откуда: Прибалтика

Создавать темы 02-Мар-2017 01:42 (спустя 21 минута)

[Цитировать]

Это проблему скорей всего не решит .
[Профиль] [ЛС]

kosmoaelita

Пол: Мужской

Стаж: 5 лет 2 месяца

Сообщений: 969

Откуда: Украина

Создавать темы 03-Мар-2017 11:59 (спустя 1 день 10 часов)

[Цитировать]

У меня качает
[Профиль] [ЛС]

croMAG

Пол: Мужской

Стаж: 2 года 2 месяца

Сообщений: 1873

Откуда: Прибалтика

Создавать темы 03-Мар-2017 12:16 (спустя 16 минут)

[Цитировать]

kosmoaelita, У Джона что то с тырнетом .У него постоянно фигово тянет.
[Профиль] [ЛС]

Djon88SS

Пол: Мужской

Стаж: 3 года 10 месяцев

Сообщений: 751

Создавать темы 05-Мар-2017 01:45 (спустя 1 день 13 часов)

[Цитировать]

С админа раньше скачивалось нормально, а с космоаэлиты не качает. С рутрекера всё нормально скачивается. Так что лучше залить так как пиры не находятся почему-то.
[Профиль] [ЛС]

croMAG

Пол: Мужской

Стаж: 2 года 2 месяца

Сообщений: 1873

Откуда: Прибалтика

Создавать темы 05-Мар-2017 02:48 (спустя 1 час 3 минуты)

[Цитировать]

Да трекер ебанутый Со всех нормально идет а тут хуйня твориться Со срульни пашет, с кинозала пашет, с рутора пашет, с твваулт чуток задерживается но там пиндостан а тут злоебучесть . Другого слова не подберешь
[Профиль] [ЛС]

Djon88SS

Пол: Мужской

Стаж: 3 года 10 месяцев

Сообщений: 751

Создавать темы 14-Мар-2017 03:38 (спустя 9 дней)

[Цитировать]

Так желательно всё заливать тогда. Ссылку то и через приват можно скинуть если что.
[Профиль] [ЛС]
Показать сообщения:    
Ответить на тему

Текущее время: 20-Ноя 11:07

Часовой пояс: UTC + 3:30



Вы не можете начинать темы
Вы не можете отвечать на сообщения
Вы не можете редактировать свои сообщения
Вы не можете удалять свои сообщения
Вы не можете голосовать в опросах
Вы не можете прикреплять файлы к сообщениям
Вы не можете скачивать файлы