Адский луч / Шпионское гнездо / Il raggio infernale / Danger!! Death Ray / Nido de espías (Джанфранко Бальданелло / Gianfranco Baldanello (as Frank G. Carroll)) [1967, Италия, Испания, фантастика, приключения, SATRip] ЛО (den904), СТ (kosmoaelita-karlivanovich)

Reply to topic
 
Author Message

kosmoaelita ®

Gender: Male

Longevity: 8 years 3 months

Posts: 1710

Post 28-Feb-2017 19:45

[Quote]

Адский луч / Шпионское гнездо / Il raggio infernale / Danger!! Death Ray / Nido de espías
Страна: Италия, Испания, Leda Films Productions S.L., Meteor Film S.r.l.
Жанр: фантастика, приключения. комедия. шпиономания
Год выпуска: 1967
Продолжительность: 01:29:25
Перевод: ЛО den904 по субтитрам от (kosmoaelita-karlivanovich)
Режиссер: Джанфранко Бальданелло / Gianfranco Baldanello (as Frank G. Carroll)
В ролях:
Gordon Scott ... Bart Fargo
Delfi Mauro ... Lucille (as Maureen Delphy)
Nello Pazzafini ... Frank (as Ted Carter)
Alberto Dalbés ... Carver (as Albert Dalbes)
Silvia Solar ... Mrs. Carver (as Sylvia Solar)
Massimo Righi ... Al (as Max Dean)
Tullio Altamura ... Prof. John Carmichael (as Tor Altmayer)
Rossella Bergamonti ... Miss Roberta - Raymond's Secretary (as Rosemary Herbert)
Carlos Hurtado ... Scarface
Tina Di Pietro ... Raymond's Blonde (as Jane Peters)
Fernando Rubio ... Bearded Henchman (as Larry Sheffield)
Julio St. Cruz ... Señor Raymond (as Juan Sant Cruz)
Valentino Macchi ... Henchman 'X3' (as Edwin Moore)
Giulio Maculani ... Gary - Mustachioed Henchman (as Julian Macmillan)
Описание: Неизвестные похищают профессора Кармайкла прямо с пресс-конференции, на которой тот рассказывал о своем изобретении: «Лучах Смерти», способных истребить все живое на Земле. На поиски профессора отправляется лучший агент ФБР Барт Фарго, которому предстоит в одиночку противостоять банде международных преступников.
Релиз

Качество: SATRip
Формат: MKV
Видео: x264, 1416 кбит/с, 720x400, 23.976 к/с,
Аудио 1: Русский ЛО (den904) (AC3, 2 ch, 192 Кбит/с)
Аудио 2: Русский ЛО (den904) (AC3, 2 ch, 192 Кбит/с)
Аудио 3: Английский (AC3, 2 ch, 128 Кбит/с)
Аудио 4: Итальянский (AC3, 2 ch, 128 Кбит/с)
Аудио 5: Испанский (AC3, 2 ch, 128 Кбит/с)
Аудио 6: Немецкий (AC3, 2 ch, 128 Кбит/с)
Субтитры : Русские ()
Работа над релизом:
Релиз kosmoaelita.
Видеоряд найден на СГ. Представлен испанский вариант фильма.
Перевод на слух с англ. по заказу kosmoaelita - karlivanovich
Русская озвучка по заказу kosmoaelita - den904
Спонсор русской озвучки - Андрей Берг



Пример русских субтитров

Дополнительно

Also Known As (AKA)
Brazil O Raio Infernal
Spain Nido de espías
France Le rayon infernal
UK Nest of Spies
Greece (video title) Aktina thanatou
Netherlands (video box title) Death Ray
Sweden (video title) Hellish Beam
USA Danger!! Death Ray
USA (short title) Death Ray
West Germany Mike Morris jagt Agenten in die Hölle
Формат изображения: 1.85 : 1
Формат копии: 35 mm
Формат съёмок: 35 mm
Изображение: цветное
Язык: итальянский

Знаете ли вы, что...

MediaInfo

Общее
Уникальный идентификатор : 193775650467372775885654821673116083272 (0x91C7D5309986CBD4AC986573F063A448)
Полное имя : N:\Danger!! Death Ray - Il raggio infernale 1967.XviD.SATRip.Rus.kosmoaelita.mkv
Формат : Matroska
Версия формата : Version 4 / Version 2
Размер файла : 1,47 Гбайт
Продолжительность : 1 ч. 29 м.
Общий поток : 2355 Кбит/сек
Название фильма : Адский луч / Шпионское гнездо / Il raggio infernale / Danger!! Death Ray / Nido de espías / 1967 / Релиз www.kosmoaelita.com
Дата кодирования : UTC 2017-04-08 20:31:04
Программа кодирования : mkvmerge v6.6.0 ('The Edge Of The In Between') built on Dec 1 2013 17:55:00
Библиотека кодирования : libebml v1.3.0 + libmatroska v1.4.1
Attachments : Poster.jpg
Видео
Идентификатор : 1
Формат : MPEG-4 Visual
Профиль формата : Advanced Simple@L2
Параметр BVOP формата : 2
Параметр QPel формата : Нет
Параметр GMC формата : Без точки перехода
Параметр матрицы формата : Default (H.263)
Режим смешивания : Сжатый битовый поток
Идентификатор кодека : V_MS/VFW/FOURCC / XVID
Идентификатор кодека/Подсказка : XviD
Продолжительность : 1 ч. 29 м.
Битрейт : 1412 Кбит/сек
Ширина : 720 пикселей
Высота : 400 пикселей
Соотношение сторон : 16:9
Режим частоты кадров : Постоянный
Частота кадров : 25,000 кадров/сек
Цветовое пространство : YUV
Субдискретизация насыщенности : 4:2:0
Битовая глубина : 8 бит
Тип развёртки : Прогрессивная
Метод сжатия : С потерями
Бит/(Пиксели*Кадры) : 0.196
Размер потока : 903 Мбайт (60%)
Заголовок : kosmoaelita
Библиотека кодирования : XviD 1.1.2 (UTC 2006-11-01)
Default : Да
Forced : Нет
Аудио #1
Идентификатор : 2
Формат : AC-3
Формат/Информация : Audio Coding 3
Расширение режима : CM (complete main)
Параметр Endianness формата : Big
Идентификатор кодека : A_AC3
Продолжительность : 1 ч. 29 м.
Вид битрейта : Постоянный
Битрейт : 192 Кбит/сек
Каналы : 2 канала
Расположение каналов : Front: L R
Частота : 48,0 КГц
Частота кадров : 31,250 кадров/сек (1536 spf)
Метод сжатия : С потерями
Размер потока : 123 Мбайт (8%)
Заголовок : Русский ЛО (den904 для kosmoaelita.com) - на англ. дорожку - поддержка А.Берг
Язык : Russian
Default : Да
Forced : Нет
Аудио #2
Идентификатор : 3
Формат : AC-3
Формат/Информация : Audio Coding 3
Расширение режима : CM (complete main)
Параметр Endianness формата : Big
Идентификатор кодека : A_AC3
Продолжительность : 1 ч. 29 м.
Вид битрейта : Постоянный
Битрейт : 192 Кбит/сек
Каналы : 2 канала
Расположение каналов : Front: L R
Частота : 48,0 КГц
Частота кадров : 31,250 кадров/сек (1536 spf)
Метод сжатия : С потерями
Размер потока : 123 Мбайт (8%)
Заголовок : Русский ЛО (den904 для kosmoaelita.com) - на итал. дорожку - поддержка А.Берг
Язык : Russian
Default : Нет
Forced : Нет
Аудио #3
Идентификатор : 4
Формат : MPEG Audio
Версия формата : Version 1
Профиль формата : Layer 3
Режим : Joint stereo
Расширение режима : MS Stereo
Идентификатор кодека : A_MPEG/L3
Идентификатор кодека/Подсказка : MP3
Продолжительность : 1 ч. 29 м.
Вид битрейта : Постоянный
Битрейт : 128 Кбит/сек
Каналы : 2 канала
Частота : 44,1 КГц
Метод сжатия : С потерями
Размер потока : 81,9 Мбайт (5%)
Язык : English
Default : Нет
Forced : Нет
Аудио #4
Идентификатор : 5
Формат : MPEG Audio
Версия формата : Version 1
Профиль формата : Layer 3
Режим : Joint stereo
Расширение режима : MS Stereo
Идентификатор кодека : A_MPEG/L3
Идентификатор кодека/Подсказка : MP3
Продолжительность : 1 ч. 29 м.
Вид битрейта : Постоянный
Битрейт : 128 Кбит/сек
Каналы : 2 канала
Частота : 44,1 КГц
Метод сжатия : С потерями
Размер потока : 81,9 Мбайт (5%)
Язык : Spanish
Default : Нет
Forced : Нет
Аудио #5
Идентификатор : 6
Формат : MPEG Audio
Версия формата : Version 1
Профиль формата : Layer 3
Режим : Joint stereo
Расширение режима : MS Stereo
Идентификатор кодека : A_MPEG/L3
Идентификатор кодека/Подсказка : MP3
Продолжительность : 1 ч. 29 м.
Вид битрейта : Постоянный
Битрейт : 128 Кбит/сек
Каналы : 2 канала
Частота : 44,1 КГц
Метод сжатия : С потерями
Размер потока : 81,9 Мбайт (5%)
Библиотека кодирования : LAME3.97
Язык : Italian
Default : Нет
Forced : Нет
Аудио #6
Идентификатор : 7
Формат : MPEG Audio
Версия формата : Version 1
Профиль формата : Layer 3
Режим : Joint stereo
Расширение режима : MS Stereo
Идентификатор кодека : A_MPEG/L3
Идентификатор кодека/Подсказка : MP3
Продолжительность : 1 ч. 29 м.
Вид битрейта : Постоянный
Битрейт : 128 Кбит/сек
Каналы : 2 канала
Частота : 44,1 КГц
Метод сжатия : С потерями
Размер потока : 81,9 Мбайт (5%)
Язык : German
Default : Нет
Forced : Нет
Текст #1
Идентификатор : 8
Формат : VobSub
Режим смешивания : zlib
Идентификатор кодека : S_VOBSUB
Идентификатор кодека/Информация : Picture based subtitle format used on DVDs
Заголовок : Русский (kosmoaelita-karlivanovich) VobSub - перевод на слух с англ.
Язык : Russian
Default : Да
Forced : Нет
Текст #2
Идентификатор : 9
Формат : VobSub
Режим смешивания : zlib
Идентификатор кодека : S_VOBSUB
Идентификатор кодека/Информация : Picture based subtitle format used on DVDs
Заголовок : Русский (kosmoaelita-karlivanovich) VobSub - перевод на слух с англ.
Язык : Russian
Default : Нет
Forced : Нет
Текст #3
Идентификатор : 10
Формат : UTF-8
Идентификатор кодека : S_TEXT/UTF8
Идентификатор кодека/Информация : UTF-8 Plain Text
Заголовок : Русский (kosmoaelita-karlivanovich) srt - перевод на слух с англ.
Язык : Russian
Default : Нет
Forced : Нет

Пример субтитров

Скринлист



Last edited by kosmoaelita on 2017-04-08 23:37; edited 5 times in total
[Profile] [PM]

kosmoaelita ®

Gender: Male

Longevity: 8 years 3 months

Posts: 1710

Post 01-Mar-2017 03:02 (after 7 hours)

[Quote]

Примитивная шпиономания
[Profile] [PM]

Трамвай-фильм

Gender: Male

Longevity: 6 years 4 months

Posts: 1883

Location: Россия

Post 01-Mar-2017 17:40 (after 14 hours)

[Quote]

Времена Бонда, что ж вы хотели то?
[Profile] [PM]

kosmoaelita ®

Gender: Male

Longevity: 8 years 3 months

Posts: 1710

Post 01-Mar-2017 20:39 (after 2 hours 59 minutes)

[Quote]

Слишком уж примитивная. В стиле Рємбо и нескончаеміх патронов смайлик+
[Profile] [PM]

kosmoaelita ®

Gender: Male

Longevity: 8 years 3 months

Posts: 1710

Post 01-Mar-2017 20:41 (after 1 minute)

[Quote]

В испанском переводе звучит, как "шпионское гнездо"
В итальянском. как "адский луч"
В английском - "Опасносность! Луч смерти" смайлик+
[Profile] [PM]

CROM@G

Gender: Male

Longevity: 5 years 2 months

Posts: 3437

Location: Прибалтика

Post 01-Mar-2017 21:29 (after 47 minutes)

[Quote]

kosmoaelita,
А в русском ,,Всем пиздец,, roar_002
[Profile] [PM]

kosmoaelita ®

Gender: Male

Longevity: 8 years 3 months

Posts: 1710

Post 08-Apr-2017 22:35 (after 1 month 7 days)

[Quote]

Добавлена русская озвучка от den904
[Profile] [PM]

Dionisiy22

Gender: Unknown

Longevity: 2 years 10 months

Posts: 63

Post 06-Nov-2019 15:50 (after 2 years 6 months)

[Quote]

Помогите скачать пожалуйста
[Profile] [PM]
Display posts:    
Reply to topic

Current time is: 06-Dec 01:50

All times are UTC + 3



You cannot post new topics in this forum
You cannot reply to topics in this forum
You cannot edit your posts in this forum
You cannot delete your posts in this forum
You cannot vote in polls in this forum
You cannot attach files in this forum
You cannot download files in this forum