Флэш Гордон - Ракетный корабль / Flash Gordon Rocket Ship Movie (Фредерик Стефани / Frederick Stephani, Рэй Тейлор / Ray Taylor) [1938 г., Фантастика, DVDRip] ЛО (sasha20072007) , СТ (m_holodkowski)

Reply to topic
 
Author Message

admin ®

Gender: Male

Longevity: 7 years 2 months

Posts: 4723

Post 04-Oct-2012 19:10

[Quote]

Флэш Гордон - Ракетный корабль / Flash Gordon Rocket Ship Movie
Год выпуска: 1938
Страна: США
Жанр: Фантастика
Продолжительность: 01:08:40
Перевод: Любительский (одноголосый) sasha20072007
Режиссер: Фредерик Стефани / Frederick Stephani, Рэй Тейлор / Ray Taylor
В ролях: Ларри Бастер Крэбб, Джин Роджерс, Чарлз Миддлтон, Присцилла Лоусон, Фрэнк Шэннон
Описание: Ретрофантастика.Флэш Гордон - Ракетный корабль - полнометражный фильм собранный из частей 13-ти серийного минисериала 1936 года.Первая экранизация культового комикса Алекса Раймонда. К Земле приближается неизвестная планета, угрожая катастрофой. Доктор Зарков строит ракетный корабль, чтобы отправиться туда. К нему присоединяются молодой человек Флэш Гордон и его попутчица, очаровательная Дэйл Арден. Прибыв на планету Монго, они попадают в плен к злокозненному императору Мингу и его дочери принцессе Ауре, сталкиваются с чудовищами, людьми-львами и людьми-ястребами, переживают множество невероятных приключений...
Качество: DVDRip
Формат: MKV
Видео: x264, 1264 Кбит/с, crf=21, 704x528
Аудио 1: Русский (AC3, 2 ch, 192 Кбит/с)
Аудио 2: Английский (AC3, 2 ch, 192 Кбит/с)
Субтитры : Русские (m_holodkowski)


Пример русских субтитров

Релиз

Субтитры (со словенского) - m_holodkowski
Рип и озвучка - мои (sasha200720, А.Середа).
Для Украины: рип дополнительно залит в файлохранилище
Для удаления и добавления дорожек в mkv используйте бесплатную mkvmerge GUI 5.80

Дополнительно

слоган «BIG FEATURE SENSATION! Amazing STRANGE WORLD ADVENTURES! From Alex Raymond's Famous Newspaper Strip»
Also Known As (AKA)
Atomic Rocketship (undefined)
Flash Gordon: Rocketship USA (video catalogue title)
Rocket Ship USA (reissue title)
Фильмы:
Flash Gordon (Space Soldiers) / Флэш Гордон (Космические солдаты) (киносериал из 13 к/м фильмов, 1936)
Flash Gordon (Rocket Ship) / Флэш Гордон (Ракетный корабль) (фильм - сокращенная версия сериала, 1938)
Flash Gordon's Trip to Mars / Путешествие Флэша Гордона на Марс (киносериал из 15 к/м фильмов, 1938)
Flash Gordon Conquers the Universe / Flash Gordon завоевывает Вселенную (киносериал из 12 к/м фильмов, 1940)
Flash Gordon / Флэш Гордон (телесериал, 1954—1955)
Flesh Gordon / Флеш Гордон (эротическая пародия, 1974)
The New Adventures of Flash Gordon / Новые приключения Флэша Гордона (мультсериал, 1979—1980)
Flash Gordon: The Greatest Adventure of All / Флэш Гордон: Величайшее приключение всех времён (мультфильм, 1982) -
Flash Gordon / Флэш Гордон (1980)
Defenders of the Earth / Защитники Земли (мультфильм, 1986)
Flesh Gordon Meets the Cosmic Cheerleaders / Флеш Гордон встречает космических болельщиц (эротическая пародия, 1989) -
Flash Gordon / Флэш Гордон (мультсериал, 1996—1997)
Flash Gordon / Флэш Гордон (телесериал, 2007—2008)
Планируется в 2012г выпустить на экраны римейк фильма 1936года.

Рецензия

MediaInfo

Общее
Уникальный идентификатор : 178035899392627706455455445356332459358 (0x85F0778C1B76FE76B34FD68341C8255E)
Полное имя : E:\Flash.Gordon.RocketShip.1938.x264.DVDRip.mkv
Формат : Matroska
Версия формата : Version 2
Размер файла : 811 Мбайт
Продолжительность : 1 ч. 8 м.
Общий поток : 1651 Кбит/сек
Название фильма : by sasha20072007, Украина 2012г.
Дата кодирования : UTC 2012-02-08 15:47:55
Программа кодирования : mkvmerge v5.2.1 ('A Far Off Place') built on Jan 31 2012 17:07:03
Библиотека кодирования : libebml v1.2.3 + libmatroska v1.3.0
Видео
Идентификатор : 1
Формат : AVC
Формат/Информация : Advanced Video Codec
Профиль формата : High@L4.1
Параметр CABAC формата : Да
Параметр ReFrames формата : 8 кадров
Идентификатор кодека : V_MPEG4/ISO/AVC
Продолжительность : 1 ч. 8 м.
Битрейт : 1234 Кбит/сек
Ширина : 704 пикселя
Высота : 528 пикселей
Соотношение сторон : 4:3
Режим частоты кадров : Постоянный
Частота кадров : 23,976 кадра/сек
Цветовое пространство : YUV
Субдискретизация насыщенности : 4:2:0
Битовая глубина : 8 бит
Тип развёртки : Прогрессивная
Бит/(Пиксели*Кадры) : 0.139
Размер потока : 606 Мбайт (75%)
Заголовок : Flash Gordon - Rocket Ship Movie 1938
Библиотека кодирования : x264 core 120 r2146 bcd41db
Настройки программы : cabac=1 / ref=8 / deblock=1:-3:-3 / analyse=0x3:0x133 / me=umh / subme=11 / psy=1 / psy_rd=0.90:0.07 / mixed_ref=1 / me_range=24 / chroma_me=1 / trellis=2 / 8x8dct=1 / cqm=0 / deadzone=6,6 / fast_pskip=1 / chroma_qp_offset=-3 / threads=6 / sliced_threads=0 / nr=0 / decimate=0 / interlaced=0 / bluray_compat=0 / constrained_intra=0 / bframes=8 / b_pyramid=2 / b_adapt=2 / b_bias=0 / direct=1 / weightb=1 / open_gop=0 / weightp=2 / keyint=210 / keyint_min=21 / scenecut=40 / intra_refresh=0 / rc_lookahead=60 / rc=crf / mbtree=1 / crf=21.0 / qcomp=0.80 / qpmin=0 / qpmax=69 / qpstep=4 / vbv_maxrate=50000 / vbv_bufsize=50000 / crf_max=0.0 / nal_hrd=none / ip_ratio=1.10 / aq=1:0.50
Язык : English
Default : Да
Forced : Нет
Аудио #1
Идентификатор : 2
Формат : AC-3
Формат/Информация : Audio Coding 3
Расширение режима : CM (complete main)
Параметр Endianness формата : Big
Идентификатор кодека : A_AC3
Продолжительность : 1 ч. 8 м.
Вид битрейта : Постоянный
Битрейт : 192 Кбит/сек
Каналы : 2 канала
Расположение каналов : Front: L R
Частота : 48,0 КГц
Битовая глубина : 16 бит
Метод сжатия : С потерями
Размер потока : 94,3 Мбайт (12%)
Заголовок : Русский (А.Середа)
Язык : Russian
Default : Да
Forced : Нет
Аудио #2
Идентификатор : 3
Формат : AC-3
Формат/Информация : Audio Coding 3
Расширение режима : CM (complete main)
Параметр Endianness формата : Big
Идентификатор кодека : A_AC3
Продолжительность : 1 ч. 8 м.
Вид битрейта : Постоянный
Битрейт : 192 Кбит/сек
Каналы : 2 канала
Расположение каналов : Front: L R
Частота : 48,0 КГц
Битовая глубина : 16 бит
Метод сжатия : С потерями
Размер потока : 94,3 Мбайт (12%)
Язык : English
Default : Нет
Forced : Нет
Текст #1
Идентификатор : 4
Формат : VobSub
Идентификатор кодека : S_VOBSUB
Идентификатор кодека/Информация : The same subtitle format used on DVDs
Заголовок : Русский (VobSub)
Язык : Russian
Default : Да
Forced : Нет
Текст #2
Идентификатор : 5
Формат : UTF-8
Идентификатор кодека : S_TEXT/UTF8
Идентификатор кодека/Информация : UTF-8 Plain Text
Заголовок : srt
Язык : Russian
Default : Нет
Forced : Нет
Меню
00:00:00.000 : en:01
00:05:00.233 : en:02
00:10:00.466 : en:03
00:15:10.933 : en:04
00:20:00.833 : en:05
00:25:00.333 : en:06
00:30:00.599 : en:07
00:35:00.266 : en:08
00:40:00.599 : en:09
00:45:00.000 : en:10
00:50:00.233 : en:11
00:55:00.466 : en:12
01:00:10.933 : en:13
01:10:00.833 : en:14
01:15:00.333 : en:15
01:20:00.599 : en:16
01:25:00.266 : en:17

Скриншоты





Last edited by admin on 2014-02-05 23:14; edited 1 time in total
[Profile] [PM]

Guest

Gender: Unknown

Post 07-Oct-2012 14:12 (after 2 days 19 hours)

[Quote]

Thank you!
 

admin ®

Gender: Male

Longevity: 7 years 2 months

Posts: 4723

Post 05-Feb-2014 23:08 (after 1 year 3 months)

[Quote]

Оригинальный сериал
http://kosmoaelita.com/viewtopic.php?t=1074
[Profile] [PM]
Quick Reply

Name:

            
Heads necessary to send messages to enable JavaScript
Display posts:    
Reply to topic

Current time is: 12-Nov 08:18

All times are UTC + 3



You cannot post new topics in this forum
You can reply to topics in this forum
You cannot edit your posts in this forum
You cannot delete your posts in this forum
You cannot vote in polls in this forum
You cannot attach files in this forum
You cannot download files in this forum