Эротика пришельцев 2 / Внеземная эротика 2 / Sex Files: Alien Erotica II / Sex Files Alien Erotica II (Марк Деларой / Mark Delaroy, Alain Siritzky) [2000, США, Эротика, Фантастика, XXX, SATRip] ПМ (RenTV)

Reply to topic
 
Author Message

kosmoaelita ®

Gender: Male

Longevity: 8 years

Posts: 1644

Post 29-Jan-2017 02:56

[Quote]

Эротика пришельцев 2 / Внеземная эротика 2 / Sex Files: Alien Erotica II / Sex Files Alien Erotica II
Страна: США
Жанр: Эротика, Фантастика, XXX
Год выпуска: 2000
Продолжительность: 01:20:03
Перевод: Профессиональный (многоголосый) RenTV
Режиссер: Марк Деларой / Mark Delaroy, Alain Siritzky
В ролях:
Kira Reed Lorsch ... Agent Forrest (as Kira Reed)
Axia ... Marie
Scott Haynes ... Agent Daniels
Brad Bartram ... Dr. Dan Jonas
Regina Russell Banali ... Dr. Betty Brooks (as Regina Russell)
Mica Bradshaw ... Preston
Vince Vouyer ... Pepe Purdue (as Giovanni Moretti)
Robert Donavan ... Don the Marine
Michelle von Flotow ... Angel (as Michelle Hall)
Griffin Drew ... Doreen
Julia Kruis ... Tina
Jarod Carey ... Ted (as John Smith)
Описание: Если в первой серии "сексуальный вирус" принесла на Землю астронавтка, совершившая полет в космос, то во втором фильме аналогичная "зараза" преодолела плотные слои земной атмосферы и совершила "мягкую посадку" в мусорном баке на задворках какого-то американского ресторанчика. И каждого, кто чуял аромат инопланетного вируса, буквально разрывали сексуальные инстинкты. Первыми жертвами "заразы" стали парень-повар и две его коллеги-официантки...
Качество: SATRip
Формат: MKV
Видео: xviD, 1061 кбит/с, 592x448, 25 к/с,
Аудио 1: Русский (AC3, 2 ch, 192 Кбит/с)
Аудио 2: Английский (мр3, 2 ch, 192 Кбит/с)
Работа над релизом:
Видеоряд найден на СГ
Синхр. русской дорожки - kosmoaelita


Дополнительно

Hungary Szex-akták: Erotika az űrből 2.
USA (cable TV title) Alien Species II: The Sex Files
Venezuela Archivos sexuales - Ente erótico 2
Venezuela Expedientes sexuales - Ente erótico 2

Знаете ли вы, что...

Отзывы

MediaInfo

Общее
Уникальный идентификатор : 252210409490279110216550449585717747829 (0xBDBDF53EFC9304CEAB3A92590397A075)
Полное имя : F:\Sex Files Alien Erotica II 1990.Xvid.SATRip.mkv
Формат : Matroska
Версия формата : Version 4 / Version 2
Размер файла : 807 Мбайт
Продолжительность : 1 ч. 20 м.
Общий поток : 1409 Кбит/сек
Название фильма : Sex Files Alien Erotica II / 1990 / kosmoaelita
Дата кодирования : UTC 2017-01-28 23:45:51
Программа кодирования : mkvmerge v6.6.0 ('The Edge Of The In Between') built on Dec 1 2013 17:55:00
Библиотека кодирования : libebml v1.3.0 + libmatroska v1.4.1
Attachments : Poster.jpg
Видео
Идентификатор : 1
Формат : MPEG-4 Visual
Профиль формата : Advanced Simple@L5
Параметр BVOP формата : 1
Параметр QPel формата : Нет
Параметр GMC формата : Без точки перехода
Параметр матрицы формата : Default (H.263)
Режим смешивания : Сжатый битовый поток
Идентификатор кодека : V_MS/VFW/FOURCC / XVID
Идентификатор кодека/Подсказка : XviD
Продолжительность : 1 ч. 20 м.
Битрейт : 1061 Кбит/сек
Ширина : 592 пикселя
Высота : 448 пикселей
Соотношение сторон : 4:3
Режим частоты кадров : Постоянный
Частота кадров : 25,000 кадров/сек
Цветовое пространство : YUV
Субдискретизация насыщенности : 4:2:0
Битовая глубина : 8 бит
Тип развёртки : Прогрессивная
Метод сжатия : С потерями
Бит/(Пиксели*Кадры) : 0.160
Размер потока : 608 Мбайт (75%)
Заголовок : kosmoaelita
Библиотека кодирования : XviD 1.1.0 (UTC 2005-11-22)
Default : Да
Forced : Нет
Аудио #1
Идентификатор : 2
Формат : AC-3
Формат/Информация : Audio Coding 3
Расширение режима : CM (complete main)
Параметр Endianness формата : Big
Идентификатор кодека : A_AC3
Продолжительность : 1 ч. 20 м.
Вид битрейта : Постоянный
Битрейт : 192 Кбит/сек
Каналы : 2 канала
Расположение каналов : Front: L R
Частота : 48,0 КГц
Частота кадров : 31,250 кадров/сек (1536 spf)
Метод сжатия : С потерями
Размер потока : 110 Мбайт (14%)
Заголовок : Русский ПМ (RenTV)
Язык : Russian
Default : Да
Forced : Нет
Аудио #2
Идентификатор : 3
Формат : MPEG Audio
Версия формата : Version 1
Профиль формата : Layer 3
Режим : Joint stereo
Расширение режима : MS Stereo
Идентификатор кодека : A_MPEG/L3
Идентификатор кодека/Подсказка : MP3
Продолжительность : 1 ч. 20 м.
Вид битрейта : Постоянный
Битрейт : 128 Кбит/сек
Каналы : 2 канала
Частота : 48,0 КГц
Метод сжатия : С потерями
Размер потока : 73,3 Мбайт (9%)
Библиотека кодирования : LAME3.97b
Настройки программы : -m j -V 4 -q 2 -lowpass 17 -b 128
Язык : English
Default : Нет
Forced : Нет

Скринлист

cd Рип дополнительно залит на ОБЛАКО cd2


Last edited by kosmoaelita on 2017-01-29 03:13; edited 2 times in total
[Profile] [PM]

kosmoaelita ®

Gender: Male

Longevity: 8 years

Posts: 1644

Post 29-Jan-2017 03:03 (after 7 minutes)

[Quote]

Порнуха
[Profile] [PM]

Faer

Gender: Male

Longevity: 5 years 8 months

Posts: 454

Post 29-Jan-2017 05:16 (after 2 hours 12 minutes)

[Quote]

Подобную хрень рен-тв показывали, по ночам.
[Profile] [PM]

Трамвай-фильм

Gender: Male

Longevity: 6 years 1 month

Posts: 1863

Location: Россия

Post 29-Jan-2017 10:53 (after 5 hours)

[Quote]

18277Порнуха
Какая же это порноха, извините? Порно это когда в кадре есть эрогированные гениталии.
[Profile] [PM]

Guest

Gender: Unknown

Post 30-Jan-2017 02:32 (after 15 hours)

[Quote]

Осталось первую часть для полного кайфа выложить, но лягухи всё равно покручее будут.
 
Display posts:    
Reply to topic

Current time is: 27-Sep 03:05

All times are UTC + 3



You cannot post new topics in this forum
You cannot reply to topics in this forum
You cannot edit your posts in this forum
You cannot delete your posts in this forum
You cannot vote in polls in this forum
You cannot attach files in this forum
You cannot download files in this forum