Мальчик, который стал желтым / The Boy Who Turned Yellow (Майкл Пауэл) [1972, Великобритания, фантастика, семейный, детский, DVDRip] (Трамвай фильм)

Ответить на тему
Статистика раздачи
Размер:  863 MB   |    Зарегистрирован:  2 года   |    Скачан:  13 раз

Сидов:

Пользователь ULR Отдано Скачано Отдача Загрузка
pompilius 0 0- 0- 0- 0-
evilbuch 0,1 8318696079 MB 0- 0- 0-
показаны данные только за текущую сессию
 
   
 
 
 
Автор Сообщение

Трамвай-фильм ®

Пол: Мужской

Стаж: 4 года 6 месяцев

Сообщений: 1406

Откуда: Россия

Создавать темы 28-Янв-2017 19:40

[Цитировать]

Мальчик, который стал желтым / The Boy Who Turned Yellow
Страна: Великобритания
Жанр: фантастика, семейный, детский
Год выпуска: 1972
Продолжительность: 00:51:40
Перевод: Одноголосый, закадровый (Трамвай фильм)
Режиссер: Майкл Пауэл
В ролях: Майк Дайтам, Роберт Эдисон, Хелен Вэар, Браин Ворт
Описание: Лоботряс и неуч Джон Сандерс становится желтым, после неизвестной яркой вспышки, и пока научные умы Лондона бьются на решением это загадки, к Джону внезапно обращается таинственный металлический голос...
Доп. информация: Типичная детская фантастика, с познавательным содержанием
Качество видео: DVDRip
Формат видео: MKV
Видео: Xvid, 640x384, 25fps, 1 757 kb/s
Аудио: Dolby AC3, 48000Hz, stereo, 256kbps (русс.)
Аудио 2: Dolby AC3, 48000Hz, stereo, 320kbps (англ.)
Формат субтитров: softsub (SRT)
Доп. информация о субтитрах: только надписи

MediaInfo

ormat : Matroska
Format version : Version 4 / Version 2
File size : 863 MiB
Duration : 51 min 40 s
Overall bit rate : 2 335 kb/s
Encoded date : UTC 2017-01-28 15:52:28
Writing application : mkvmerge v7.1.0 ('Good Love') 32bit built on Jul 27 2014 12:59:18
Writing library : libebml v1.3.0 + libmatroska v1.4.1
Video
ID : 1
Format : MPEG-4 Visual
Format profile : Advanced Simple@L5
Format settings, BVOP : 1
Format settings, QPel : No
Format settings, GMC : No warppoints
Format settings, Matrix : Custom
Codec ID : V_MS/VFW/FOURCC / XVID
Codec ID/Hint : XviD
Duration : 51 min 40 s
Bit rate : 1 757 kb/s
Width : 640 pixels
Height : 384 pixels
Display aspect ratio : 5:3
Frame rate mode : Constant
Frame rate : 25.000 FPS
Color space : YUV
Chroma subsampling : 4:2:0
Bit depth : 8 bits
Scan type : Progressive
Compression mode : Lossy
Bits/(Pixel*Frame) : 0.286
Stream size : 649 MiB (75%)
Writing library : XviD 1.2.0.dev47 (UTC 2006-11-01)
Default : Yes
Forced : No
Audio #1
ID : 2
Format : AC-3
Format/Info : Audio Coding 3
Mode extension : CM (complete main)
Format settings, Endianness : Big
Codec ID : A_AC3
Duration : 51 min 40 s
Bit rate mode : Constant
Bit rate : 256 kb/s
Channel(s) : 2 channels
Channel positions : Front: L R
Sampling rate : 48.0 kHz
Frame rate : 31.250 FPS (1536 spf)
Bit depth : 16 bits
Compression mode : Lossy
Stream size : 94.6 MiB (11%)
Language : Russian
Default : Yes
Forced : No
Audio #2
ID : 3
Format : AC-3
Format/Info : Audio Coding 3
Mode extension : CM (complete main)
Format settings, Endianness : Big
Codec ID : A_AC3
Duration : 51 min 40 s
Bit rate mode : Constant
Bit rate : 320 kb/s
Channel(s) : 2 channels
Channel positions : Front: L R
Sampling rate : 48.0 kHz
Frame rate : 31.250 FPS (1536 spf)
Bit depth : 16 bits
Compression mode : Lossy
Stream size : 118 MiB (14%)
Language : English
Default : No
Forced : No
Text
ID : 4
Format : UTF-8
Codec ID : S_TEXT/UTF8
Codec ID/Info : UTF-8 Plain Text
Duration : 51 min 19 s
Bit rate : 3 b/s
Count of elements : 12
Stream size : 1.15 KiB (0%)
Language : Russian
Default : Yes
Forced : No

Скриншоты





Скринлист

cd Рип дополнительно залит на ОБЛАКО cd2
The-Boy-Who-Turned-Yellow.torrent
Торрент: Зарегистрирован [ 2017-01-28 19:40 ]

Скачать .torrent

Скачать

17 KB

Статус: проверено
Скачан: 13 раз
Размер: 863 MB
 


Последний раз редактировалось: Трамвай-фильм (2017-11-04 19:16), всего редактировалось 1 раз
[Профиль] [ЛС]

Трамвай-фильм ®

Пол: Мужской

Стаж: 4 года 6 месяцев

Сообщений: 1406

Откуда: Россия

Создавать темы 28-Янв-2017 19:42 (спустя 1 минута)

[Цитировать]

Как и обещал фантастический п/ф.
[Профиль] [ЛС]

croMAG

Пол: Мужской

Стаж: 3 года 5 месяцев

Сообщений: 2018

Откуда: Прибалтика

Создавать темы 28-Янв-2017 20:17 (спустя 35 минут)

[Цитировать]

п/ф.
Что это ?
[Профиль] [ЛС]

Трамвай-фильм ®

Пол: Мужской

Стаж: 4 года 6 месяцев

Сообщений: 1406

Откуда: Россия

Создавать темы 28-Янв-2017 20:36 (спустя 18 минут)

[Цитировать]

полнометражный фильм
[Профиль] [ЛС]
Показать сообщения:    
Ответить на тему

Текущее время: 23-Фев 08:16

Часовой пояс: UTC + 3:30



Вы не можете начинать темы
Вы не можете отвечать на сообщения
Вы не можете редактировать свои сообщения
Вы не можете удалять свои сообщения
Вы не можете голосовать в опросах
Вы не можете прикреплять файлы к сообщениям
Вы можете скачивать файлы