Секс-исследователь / Девушка с космического корабля Венера / Sexplorer / The Girl from Starship Venus (Дерек Форд / Derek Ford) [1975, Великобритания, фантастика, комедия, эротика, DVDRip] ЛО (den904), СТ (Severnyj-kosmoaelita)

Reply to topic
 
Author Message

kosmoaelita ®

Gender: Male

Longevity: 49 years

Posts: 965

Post 15-Jan-2017 16:45

[Quote]

Секс-исследователь / Девушка с космического корабля Венера / Sexplorer / The Girl from Starship Venus
Страна: Великобритания
Жанр: фантастика, комедия, эротика
Год выпуска: 1975
Продолжительность: 01:21:42
Перевод: ЛО den904 по субтитрам от Severnyj-kosmoaelita
Режиссер: Дерек Форд / Derek Ford
В ролях:
Monika Ringwald ... Explorer
Mark Jones ... Lecher
Andrew Grant ... Allan
Tony Kenyon ... Man in Cinema
David Rayner ... Photographer
Beatrice Shaw ... Old Lady
Michael Cronin ... Doctor
Dave Carter ... Inspector
Elaine Baillie ... Sauna Manageress
Prudence Drage ... Sauna Attendant
Anna Dawson ... Store Manageress
Chris Gannon ... Store Detective
Alan Selwyn ... Bookshop Manager
Tanya Ferova ... Club Stripper
Roy Scammell ... Ballet Dancer
Juliet Groves ... Ballet Dancer
Albin Pahernik ... Man in Toilet
Описание: Юная венерианка высаживается на Земле, чтобы исследовать планету. Она приземляется в Лондоне в районе Сохо, где перед ней открываются широкие возможности для исследования земного секса.
Релиз

Качество: DVDRip
Формат: MKV
Видео: XviD, 981 кбит/с, 640x480, 29.97 к/с
Аудио 1: Русский ЛО (den904) (AC3, 2 ch, 192 Кбит/с)
Аудио 2: Английский (AC3, 2 ch, 192 Кбит/с)
Субтитры : Русские ()
Работа над релизом:
Релиз kosmoaelita.
Видеоряд найден в сети.
Перевод на слух с англ. по заказу kosmoaelita - Severnyj
Русская озвучка по заказу kosmoaelita - den904
Спонсор русской озвучки - Андрей Берг



Пример русских субтитров

Дополнительно

слоган «2069... A Space Sexploration!»
рейтинг MPAA рейтинг R лицам до 17 лет обязательно присутствие взрослого
Also Known As (AKA)
Denmark Sexplosionen fra Venus
France Le sexe explose
UK (alternative title) Diary of a Space Virgin
Greece (transliterated ISO-LATIN-1 title) I exerevnitria tou erota
Hong Kong (English title) (première title) The Discoveries of a Virgin Beauty
Portugal A Exploradora
Sweden Sexplosionen från Venus
USA The Girl from Starship Venus
World-wide (English title) Girl from Starship Venus

MediaInfo

Общее
Уникальный идентификатор : 213315301670286539740062596609833573663 (0xA07B085F91E181E88E1A0D20DB361D1F)
Полное имя : N:\The Girl from Starship Venus - Sexplorer 1975.XviD.DVDRip.Rus.kosmoaelita.mkv
Формат : Matroska
Версия формата : Version 4 / Version 2
Размер файла : 811 Мбайт
Продолжительность : 1 ч. 21 м.
Общий поток : 1388 Кбит/сек
Название фильма : The Girl from Starship Venus - Sexplorer / 1975 / Релиз www.kosmoaelita.com
Дата кодирования : UTC 2017-04-23 21:58:13
Программа кодирования : mkvmerge v6.6.0 ('The Edge Of The In Between') built on Dec 1 2013 17:55:00
Библиотека кодирования : libebml v1.3.0 + libmatroska v1.4.1
Attachments : poster.jpg
Видео
Идентификатор : 1
Формат : MPEG-4 Visual
Профиль формата : Advanced Simple@L5
Параметр BVOP формата : 1
Параметр QPel формата : Нет
Параметр GMC формата : Без точки перехода
Параметр матрицы формата : Выборочная
Идентификатор кодека : V_MS/VFW/FOURCC / XVID
Идентификатор кодека/Подсказка : XviD
Продолжительность : 1 ч. 21 м.
Битрейт : 977 Кбит/сек
Ширина : 640 пикселей
Высота : 480 пикселей
Соотношение сторон : 4:3
Режим частоты кадров : Постоянный
Частота кадров : 29,970 (30000/1001) кадров/сек
Цветовое пространство : YUV
Субдискретизация насыщенности : 4:2:0
Битовая глубина : 8 бит
Тип развёртки : Прогрессивная
Метод сжатия : С потерями
Бит/(Пиксели*Кадры) : 0.106
Размер потока : 571 Мбайт (70%)
Заголовок : kosmoaelita
Библиотека кодирования : XviD 1.2.1 (UTC 2008-12-04)
Default : Да
Forced : Нет
Аудио #1
Идентификатор : 2
Формат : AC-3
Формат/Информация : Audio Coding 3
Расширение режима : CM (complete main)
Параметр Endianness формата : Big
Идентификатор кодека : A_AC3
Продолжительность : 1 ч. 21 м.
Вид битрейта : Постоянный
Битрейт : 192 Кбит/сек
Каналы : 2 канала
Расположение каналов : Front: L R
Частота : 48,0 КГц
Частота кадров : 31,250 кадров/сек (1536 spf)
Метод сжатия : С потерями
Размер потока : 112 Мбайт (14%)
Заголовок : Русский ЛО (den904 для kosmoaelita.com) - поддержка А.Берг
Язык : Russian
Default : Да
Forced : Нет
Аудио #2
Идентификатор : 3
Формат : AC-3
Формат/Информация : Audio Coding 3
Расширение режима : CM (complete main)
Параметр Endianness формата : Big
Идентификатор кодека : A_AC3
Продолжительность : 1 ч. 21 м.
Вид битрейта : Постоянный
Битрейт : 192 Кбит/сек
Каналы : 2 канала
Расположение каналов : Front: L R
Частота : 48,0 КГц
Частота кадров : 31,250 кадров/сек (1536 spf)
Метод сжатия : С потерями
Размер потока : 112 Мбайт (14%)
Язык : English
Default : Нет
Forced : Нет
Текст #1
Идентификатор : 4
Формат : VobSub
Режим смешивания : zlib
Идентификатор кодека : S_VOBSUB
Идентификатор кодека/Информация : Picture based subtitle format used on DVDs
Заголовок : Русский (kosmoaelita-Severnyj) VobSub - перевод на слух с англ.
Язык : Russian
Default : Да
Forced : Нет
Текст #2
Идентификатор : 5
Формат : VobSub
Режим смешивания : zlib
Идентификатор кодека : S_VOBSUB
Идентификатор кодека/Информация : Picture based subtitle format used on DVDs
Заголовок : Русский (kosmoaelita-Severnyj) VobSub - перевод на слух с англ.
Язык : Russian
Default : Нет
Forced : Нет
Текст #3
Идентификатор : 6
Формат : UTF-8
Идентификатор кодека : S_TEXT/UTF8
Идентификатор кодека/Информация : UTF-8 Plain Text
Заголовок : Русский (kosmoaelita-Severnyj) srt - перевод на слух с англ.
Язык : Russian
Default : Нет
Forced : Нет

Пример субтитров

2
00:00:16,113 --> 00:00:19,503
Космос - безграничное пространство.
3
00:00:19,676 --> 00:00:22,941
Это бортовой журнал капитана
космического корабля Венера.
4
00:00:22,996 --> 00:00:28,920
Наша миссия - экспедиция
на пурпурную планету Дом.
5
00:00:29,713 --> 00:00:33,407
"Секс-исследователь" или
"Девушка с космического корабля Венера"
6
00:00:33,713 --> 00:00:37,907
["Sexplorer" or
"The Girl from Starship Venus", 1975г]
7
00:00:40,499 --> 00:00:44,011
Перевод Severnyj
для сайта kosmoaelita.com
8
00:00:44,777 --> 00:00:49,245
Один из членов экипажа должен будет
вступить в контакт с жителями планеты.
9
00:00:51,214 --> 00:00:54,237
Для такой миссии нам был необходим
героический доброволец.
10
00:00:54,581 --> 00:00:59,289
Наблюдатель, который будет
выглядеть как они, жить как они,
---------------
941
01:21:22,471 --> 01:21:26,672
<i>Она приземлилась на нашей планете,
чтобы следить за человеческой расой.</i>
942
01:21:26,697 --> 01:21:30,997
<i>Её затянула вседозволенность, и
она старается попробовать всё.</i>
943
01:21:31,068 --> 01:21:35,581
<i>Она - межзвёздная странница любви.</i>
944
01:21:35,753 --> 01:21:36,753
Конец.
945
01:21:37,487 --> 01:21:40,820
<i>Она - межзвёздная странница любви.</i>

Скриншоты












Скринлист



Last edited by kosmoaelita on 2017-04-24 01:01; edited 3 times in total
[Profile] [PM]

Guest

Gender: Unknown

Post 17-Jan-2017 13:50 (after 1 day 21 hour)

[Quote]

Описание:
Юная венерианка высаживается на Земле, чтобы исследовать планету. Она приземляется в Лондоне в районе Сохо, где перед ней открываются широкие возможности для исследования земного секса.
 
Quick Reply

Name:

            
Heads necessary to send messages to enable JavaScript
Display posts:    
Reply to topic

Current time is: 22-Oct 19:47

All times are UTC + 3



You cannot post new topics in this forum
You can reply to topics in this forum
You cannot edit your posts in this forum
You cannot delete your posts in this forum
You cannot vote in polls in this forum
You cannot attach files in this forum
You cannot download files in this forum