Пустоши 2005 / Гиблые земли / Опустошенные земли 2005 / Badlands-2005 / Badlands 2005 (Джордж Миллер / George Miller) [1988, США, Фантастика, постапокалипсис, VHSRip] (ЛО) (СТ)

Reply to topic
DL-List and Torrent activity
Size:  490 MB   |    Registered:  3 years 10 months   |    Completed:  1 time

Seeder not seen: 1 year 7 months

 
   
 
 
 
Author Message

kosmoaelita ®

Gender: Male

Longevity: 8 years 3 months

Posts: 1710

Post 15-Jan-2017 15:58

[Quote]

Пустоши 2005 / Гиблые земли / Опустошенные земли 2005 / Badlands-2005 / Badlands 2005
Страна: США, Badlands 2005 Productions, Columbia Pictures Entertainment, Hoyts Distribution, Lizard Productions
Жанр: Фантастика, постапокалипсис
Год выпуска: 1988
Продолжительность: 00:47:45
Перевод: Любительский (одноголосый) Den Pash по субтитрам от Stexina
Режиссер: Джордж Миллер / George Miller
В ролях:
Lewis Smith ... Marshal Garson MacBeth
Miguel Ferrer ... Rex
Sharon Stone ... Alex Neil
Caitlin O'Heaney ... Sarah Gwynne
Debra Engle ... Joanie Valentine
Lloyd Alan ... Tom Felder
Kevin Miles ... Doc Demeter
Hugh Keays-Byrne ... Moondance
Gus Mercurio ... Stubbs
Steve Kuhn ... Delaney (as Steven Kuhn)
Justin Monjo ... Braggs
David Arnett ... Technician
Marc Caleb ... Engineer #1
David Bennett ... Engineer #2
Описание: В 1996 году сильнейшая засуха вынудила американцев уйти из городов на запад. Вода стала цениться больше золота. Сейчас, в 2005, поселенцы возвращаются назад, навстречу новым испытаниям и старым заклятым врагам. Маршал США и его напарник киборг находятся в патруле на Американском западе. Жесткая начальница посылает двух маршалов (одного человека и одного киборга) в бесплодные земли 2005 года. В этом будущем вода ценится больше, чем золото. После сильной засухи Запад был покинут несколько десятилетий назад. И сейчас люди пытаются вернуться на эти земли.
Качество: VHSRip
Формат: MKV
Видео: x264, 1021 кбит/с, 480x340, 30 к/с
Аудио 1: Русский (AC3, 2 ch, 192 Кбит/с)
Аудио 2: Английский (AC3, 2 ch, 192 Кбит/с)
Субтитры : Русские ()
Работа над релизом:
Рип: digitalgod
Озвучка: DENnv
Перевод: Stexina
Тайминг: Eazin
Постер: Eazin



Пример русских субтитров
[youtube][/youtube]

Дополнительно

Also Known As (AKA)
USA (working title) Badlands
USA (long title) Badlands 2005: The Brides of Lizard Gulch

MediaInfo

Общее
Уникальный идентификатор : 187926758687973181627898837321953755344 (0x8D61608F94DEABFC84D69FC69BF6C0D0)
Полное имя : N:\Badlands 2005 1988.VHSrip.Rus.kosmoaelita.mkv
Формат : Matroska
Версия формата : Version 4 / Version 2
Размер файла : 490 Мбайт
Продолжительность : 47 м.
Режим общего битрейта : Переменный
Общий поток : 1434 Кбит/сек
Название фильма : Badlands 2005 / 1988
Дата кодирования : UTC 2017-01-15 08:05:55
Программа кодирования : mkvmerge v6.6.0 ('The Edge Of The In Between') built on Dec 1 2013 17:55:00
Библиотека кодирования : libebml v1.3.0 + libmatroska v1.4.1
Attachments : poster 5.jpg
Видео
Идентификатор : 1
Формат : AVC
Формат/Информация : Advanced Video Codec
Профиль формата : Main@L2.1
Параметр CABAC формата : Да
Параметр ReFrames формата : 2 кадра
Идентификатор кодека : V_MPEG4/ISO/AVC
Продолжительность : 47 м.
Вид битрейта : Переменный
Битрейт : 1021 Кбит/сек
Максимальный битрейт : 4000 Кбит/сек
Ширина : 480 пикселей
Высота : 340 пикселей
Соотношение сторон : 1,412
Режим частоты кадров : Постоянный
Частота кадров : 30,000 кадров/сек
Цветовое пространство : YUV
Субдискретизация насыщенности : 4:2:0
Битовая глубина : 8 бит
Тип развёртки : Прогрессивная
Бит/(Пиксели*Кадры) : 0.209
Размер потока : 349 Мбайт (71%)
Заголовок : kosmoaelita
Default : Да
Forced : Нет
Аудио #1
Идентификатор : 2
Формат : AC-3
Формат/Информация : Audio Coding 3
Расширение режима : CM (complete main)
Параметр Endianness формата : Big
Идентификатор кодека : A_AC3
Продолжительность : 47 м.
Вид битрейта : Постоянный
Битрейт : 192 Кбит/сек
Каналы : 2 канала
Расположение каналов : Front: L R
Частота : 48,0 КГц
Частота кадров : 31,250 кадров/сек (1536 spf)
Метод сжатия : С потерями
Размер потока : 65,6 Мбайт (13%)
Заголовок : Русский ЛО (Den Pash)
Язык : Russian
Default : Да
Forced : Нет
Аудио #2
Идентификатор : 3
Формат : AC-3
Формат/Информация : Audio Coding 3
Расширение режима : CM (complete main)
Параметр Endianness формата : Big
Идентификатор кодека : A_AC3
Продолжительность : 47 м.
Вид битрейта : Постоянный
Битрейт : 192 Кбит/сек
Каналы : 2 канала
Расположение каналов : Front: L R
Частота : 48,0 КГц
Частота кадров : 31,250 кадров/сек (1536 spf)
Метод сжатия : С потерями
Размер потока : 65,6 Мбайт (13%)
Язык : English
Default : Нет
Forced : Нет
Текст
Идентификатор : 4
Формат : UTF-8
Идентификатор кодека : S_TEXT/UTF8
Идентификатор кодека/Информация : UTF-8 Plain Text
Заголовок : Русский (Eazin & Stexina)
Язык : Russian
Default : Да
Forced : Нет

Скриншоты








Скринлист

cd Рип дополнительно залит на ОБЛАКО cd2
Badlands 2005 1988.VHSrip.Rus.kosmoaelita.mkv.torrent
Torrent: Registered [ 2017-01-15 15:59 ]

Download .torrent

Download

19 KB

Status: checked
Completed: 1 times
Size: 490 MB
 
[Profile] [PM]

CROM@G

Gender: Male

Longevity: 5 years 2 months

Posts: 3431

Location: Прибалтика

Post 15-Jan-2017 16:23 (after 24 minutes)

[Quote]

А этот кинец вроде на срульне раздачу закрыли . Так себе .Мне не особо .
[Profile] [PM]
Display posts:    
Reply to topic

Current time is: 03-Dec 04:44

All times are UTC + 3



You cannot post new topics in this forum
You cannot reply to topics in this forum
You cannot edit your posts in this forum
You cannot delete your posts in this forum
You cannot vote in polls in this forum
You cannot attach files in this forum
You can download files in this forum