Дорога к звездам / Дорога к звёздам (Павел Клушанцев) [1957 г., Художественно-документальный, научно-популярный, DVDRip] СССР

Reply to topic
 
Author Message

admin ®

Gender: Male

Longevity: 7 years 2 months

Posts: 4723

Post 03-Oct-2012 21:35

[Quote]

Дорога к звездам / Дорога к звёздам
Год выпуска: 1957
Страна: СССР
Жанр: Художественно-документальный, научно-популярный
Продолжительность: 00:49:00
Перевод: Не требуется
Режиссер: Павел Клушанцев
В ролях: Георгий Соловьёв
Описание: Первая часть картины рассказывает об основоположнике космонавтики К. Э. Циолковском, об истории развития ракетной техники, о развитии и перспективах космонавтики. Вторая часть - научно-фантастическое игровое кино. Постановщики предлагают пофантазировать о том, как будет происходить освоение человеком Дальнего Космоса. Очень правдоподобно и впечатляюще даже сегодня показан эффект невесомости космонавтов. Наглядно показываются принципы космических полетов. В форме игрового кино продемонстрирован первый в мире полет человека в космос. А также первый полет человека на Луну.
Стоит отметить, что фильм в общем был снят и до запуска первого Спутника. Лишь в последний момент перед выпуском досняли соответствующие кадры (натурные съёмки сделаны летом, спутник запущен в октябре 1957-го, и фильм вышел в 1957-м году.
Сам по себе фильм, помимо всего прочего, обычно оценивается как оптимистический и несущий положительное настроение. При этом главной его целью является популяризация науки.

Качество: DVDRip
Формат: AVI
Видео: XviD, 899 кбит/с, 640x480
Аудио: Русский old(AC3, 2 ch, 192 Кбит/с)
---------------------------------------------
Качество: DVDRip
Формат: MKV
Видео: x264, 1767 кбит/с, 720x540, crf=18
Аудио 1: Русский old(AC3, 2 ch, 192 Кбит/с)
Аудио 2: Русский new(AC3, 2 ch, 192 Кбит/с)


Релиз

За основу был взят рип с немецкого реставрированного ДВД,
mainking62 заменил иностранные титры и кадры с надписью на оригинальные русские и синхронизировал с родной звуковой дорожкой
Для Украины: рип дополнительно залит в файлохранилище
Для удаления и добавления дорожек в mkv используйте бесплатную mkvmerge GUI 5.80

Дополнительно

Also Known As (AKA)
Att öppna vägen till stjärnorna Sweden
Blazing a Trail to the Stars Russia (informal English alternative title)
Der Weg zu den Sternen West Germany
Kampen om himmelrummet Denmark
Kohti avaruutta Finland
Le chemin des étoiles France
Road to the Stars USA (theatrical title)
Russian Rocket to the Moon USA (16mm rental title)
Vägen till stjärnorna Sweden
Сравнение видеодорожек: немецкой и русской

Рецензия

Восхитительное кино про советских людей
Первый полнометражный фильм Клушанцева, который я посмотрел…
Фильм смотрится немного скучно и кажется затянутым, несмотря на свой 50-ти минутный хронометраж. Но это только до 30-й минуты…
Фильм состоит из двух частей. 1-я часть — биографическо-документально-учебная. Больше напоминает старый учебный фильм, которые многие смотрели на уроках физики. Нам рассказывается в этой части о жизни Циолковского и о том, как он додумывался до своих великих открытий. Эта часть наполнена физическими терминами, рисунками, схемами и т. п. Что хочется отметить — актер, игравший Циолковского — просто великолепен. А больше ничего хорошего в этой части нет.
Вторая же часть фильма — полностью художественный вымысел. Поначалу тоже смотрится довольно скучно, но когда на экране стали показываться кадры вылета в космос я подумал: «А дату выхода фильма не перепутали? Не могло в 57-м быть таких спецэффектов!». Я был настолько поражен этим фактом, что картину досматривал с выпученными глазами и ощущением полного восторга. Спецэффекты, статический обзор космических станций, мастерство комбинированных съемок дают понять, что и в Советском Союзе снимали по-настоящему качественные фантастические фильмы, которые смотрятся на уровне, а может даже и лучше, чем западные аналоговые фильмы. Да что там говорить, даже великий Стэнли Кубрик восхищался этим фильмом и только этот факт дает представление о том, насколько же хорош фильм.
Но вот в чем заключается очень странное обстоятельство: почему и в Союзе, и сейчас такое имя, как Павел Клушанцев не знакомо широкой публике? Разве он этого не заслуживает? Его фильмами восхищался Кубрик, продолжает восхищаться Джордж Лукас. Эти две несоизмеримые величины в мировом кинематографе называют Клушанцева своим учителем, а мы, граждане той же страны, что и Клушанцев не знаем о его бывшем существовании, хотя должны им гордиться.
8 из 10

MediaInfo 1

Общее
Полное имя : F:\Дорога к звездам.avi
Формат : AVI
Формат/Информация : Audio Video Interleave
Размер файла : 390 Мбайт
Продолжительность : 49 м.
Общий поток : 1113 Кбит/сек
TCOD : 0
TCDO : 29400400000
Видео
Идентификатор : 0
Формат : MPEG-4 Visual
Профиль формата : Advanced Simple@L5
Параметр BVOP формата : 2
Параметр QPel формата : Нет
Параметр GMC формата : Без точки перехода
Параметр матрицы формата : Default (H.263)
Режим смешивания : Сжатый битовый поток
Идентификатор кодека : XVID
Идентификатор кодека/Подсказка : XviD
Продолжительность : 49 м.
Битрейт : 899 Кбит/сек
Ширина : 640 пикселей
Высота : 480 пикселей
Соотношение сторон : 4:3
Частота кадров : 25,000 кадров/сек
Цветовое пространство : YUV
Субдискретизация насыщенности : 4:2:0
Битовая глубина : 8 бит
Тип развёртки : Прогрессивная
Метод сжатия : С потерями
Бит/(Пиксели*Кадры) : 0.117
Размер потока : 315 Мбайт (81%)
Библиотека кодирования : XviD 64
Аудио
Идентификатор : 1
Формат : MPEG Audio
Версия формата : Version 1
Профиль формата : Layer 3
Режим : Joint stereo
Расширение режима : MS Stereo
Идентификатор кодека : 55
Идентификатор кодека/Подсказка : MP3
Продолжительность : 49 м.
Вид битрейта : Постоянный
Битрейт : 128 Кбит/сек
Каналы : 2 канала
Частота : 48,0 КГц
Метод сжатия : С потерями
Размер потока : 44,9 Мбайт (11%)
Выравнивание : Соединение по промежуткам
Продолжительность промежутка : 250 мс. (6,25 видеокадров)
Время предзагрузки промежутка : 192 мс.

MediaInfo 2

Общее
Уникальный идентификатор : 186124898569682345679107990317644708078 (0x8C0659FF847FFCBB816EA1643C40F8EE)
Полное имя : F:\Дорога к звездам 1957\Дорога к звездам 1957.x264.DVDRip.kosmoaelita.mkv
Формат : Matroska
Версия формата : Version 4 / Version 2
Размер файла : 776 Мбайт
Продолжительность : 48 м.
Общий поток : 2217 Кбит/сек
Название фильма : Дорога к звездам 1957
Дата кодирования : UTC 2015-12-06 23:15:29
Программа кодирования : mkvmerge v6.6.0 ('The Edge Of The In Between') built on Dec 1 2013 17:55:00
Библиотека кодирования : libebml v1.3.0 + libmatroska v1.4.1
Видео
Идентификатор : 1
Формат : AVC
Формат/Информация : Advanced Video Codec
Профиль формата : High@L4.1
Параметр CABAC формата : Да
Параметр ReFrames формата : 4 кадра
Идентификатор кодека : V_MPEG4/ISO/AVC
Продолжительность : 48 м.
Битрейт : 1767 Кбит/сек
Ширина : 720 пикселей
Высота : 540 пикселей
Соотношение сторон : 4:3
Режим частоты кадров : Постоянный
Частота кадров : 25,000 кадров/сек
Цветовое пространство : YUV
Субдискретизация насыщенности : 4:2:0
Битовая глубина : 8 бит
Тип развёртки : Прогрессивная
Бит/(Пиксели*Кадры) : 0.182
Размер потока : 604 Мбайт (78%)
Библиотека кодирования : x264 core 130 r2273 b3065e6
Настройки программы : cabac=1 / ref=4 / deblock=1:-1:-1 / analyse=0x3:0x133 / me=umh / subme=11 / psy=1 / psy_rd=0.99:0.14 / mixed_ref=1 / me_range=24 / chroma_me=1 / trellis=2 / 8x8dct=1 / cqm=0 / deadzone=21,11 / fast_pskip=1 / chroma_qp_offset=-3 / threads=6 / lookahead_threads=1 / sliced_threads=0 / nr=0 / decimate=1 / interlaced=0 / bluray_compat=0 / constrained_intra=0 / bframes=8 / b_pyramid=2 / b_adapt=2 / b_bias=0 / direct=3 / weightb=1 / open_gop=0 / weightp=2 / keyint=210 / keyint_min=21 / scenecut=40 / intra_refresh=0 / rc_lookahead=80 / rc=2pass / mbtree=1 / bitrate=1767 / ratetol=1.0 / qcomp=0.65 / qpmin=0 / qpmax=69 / qpstep=4 / cplxblur=20.0 / qblur=0.5 / ip_ratio=1.25 / aq=1:0.90
Default : Да
Forced : Нет
Основные цвета : BT.709
Характеристики трансфера : BT.709
Коэффициенты матрицы : BT.709
colour_range : Limited
Аудио #1
Идентификатор : 2
Формат : AC-3
Формат/Информация : Audio Coding 3
Расширение режима : CM (complete main)
Параметр Endianness формата : Big
Идентификатор кодека : A_AC3
Продолжительность : 48 м.
Вид битрейта : Постоянный
Битрейт : 224 Кбит/сек
Каналы : 2 канала
Расположение каналов : Front: L R
Частота : 48,0 КГц
Битовая глубина : 16 бит
Метод сжатия : С потерями
Размер потока : 78,4 Мбайт (10%)
Заголовок : Русский old avi
Язык : Russian
Default : Да
Forced : Нет
Аудио #2
Идентификатор : 3
Формат : AC-3
Формат/Информация : Audio Coding 3
Расширение режима : CM (complete main)
Параметр Endianness формата : Big
Идентификатор кодека : A_AC3
Продолжительность : 48 м.
Вид битрейта : Постоянный
Битрейт : 224 Кбит/сек
Каналы : 2 канала
Расположение каналов : Front: L R
Частота : 48,0 КГц
Битовая глубина : 16 бит
Метод сжатия : С потерями
Размер потока : 78,4 Мбайт (10%)
Заголовок : Русский new dvd
Язык : Russian
Default : Нет
Forced : Нет

Скриншот 1

Скриншот 2









Скринлист 1

Скринлист 2

cd Рип дополнительно залит на mail.ru cd2


Last edited by admin on 2015-12-07 22:13; edited 7 times in total
[Profile] [PM]

admin ®

Gender: Male

Longevity: 7 years 2 months

Posts: 4723

Post 06-Dec-2015 16:02 (after 3 years 2 months)

[Quote]

В сети появилась еще одна версия данного фильма.
Картинка чуть полнее. но неконтрастная и мутная. Плюс паршивый звук (в десятке мест "съедены" окончания фраз из-за тресков и пропусков)
Позже добавлю в раздачу
http://screenshotcomparison.com/comparison/153310



Last edited by admin on 2015-12-08 00:32; edited 1 time in total
[Profile] [PM]

admin ®

Gender: Male

Longevity: 7 years 2 months

Posts: 4723

Post 07-Dec-2015 22:15 (after 1 day 6 hours)

[Quote]

Добавлена еще одна версия. Первой оставлена более качественная дорожка от старого рипа
[Profile] [PM]
Quick Reply

Name:

            
Heads necessary to send messages to enable JavaScript
Display posts:    
Reply to topic

Current time is: 12-Nov 09:26

All times are UTC + 3



You cannot post new topics in this forum
You can reply to topics in this forum
You cannot edit your posts in this forum
You cannot delete your posts in this forum
You cannot vote in polls in this forum
You cannot attach files in this forum
You cannot download files in this forum