Земля 2 / Earth II (ТВ) (Том Гриз / Tom Gries) [1971 г., Фантастика, DVDRip] ЛО (kosmoaelita), СТ (Vargnatt+saszab)

Reply to topic
 
Author Message

admin ®

Gender: Male

Longevity: 7 years

Posts: 4725

Location: Україна

Post 02-Oct-2012 14:38

[Quote]

Земля 2 / Earth II (ТВ)
Год выпуска: 1971
Страна: США, MGM Television
Жанр: Фантастика
Продолжительность: 01:37:45
Перевод: Любительский (одноголосый) kosmoaelita
Режиссер: Том Гриз / Tom Gries
В ролях: Гэри Локвуд, Скотт Хайлендс, Хари Родс, Энтони Франчоза, Мэриетт Хартли
Описание: Фильм снят для ТВ США, при поддержке НАСА.Вышел на экраны в разгар "холодной войны" в то время,когда отношения между США,Советским Союзом и Китаем были не очень хорошими.В ближайшем будущем для научных исследований и мира во всем мире была построена космическая станция Земля 2 - получившая статус первого независимого государства на орбите Земли.Но мир может быть разрушен, так как китайцы запускают ядерную боеголовку, которая летит всего в нескольких километрах от станции.Сможет ли экипаж разоружить бомбу перед ее взрывом,который не только уничтожит станцию, но и развяжет Третью мировую войну?
Качество: DVDRip
Формат: MKV
Видео: x264, 1952 Кбит/с, 720x548, 23,976 к/с, crf=19
Аудио 1: Русский (AC3, 2 ch, 192 Кбит/с)
Аудио 2: Английский (AC3, 2 ch, 192 Кбит/с)
Субтитры : Русские (Vargnatt+saszab)
Работа над релизом:
Рип с ДВД5 - kosmoaelita
Субтитры-перевод - Vargnatt при участии saszab



Дополнительно

Also Known As (AKA)
Killersatelliten West Germany (video title)
Tierra II Spain (imdb display title)
Ziemia II Poland
слоган «Just 10 seconds . . . to save a dream from becoming a nuclear nightmare»
http://en.wikipedia.org/wiki/Earth_II_(TV_series_pilot)

MediaInfo

Общее
Уникальный идентификатор : 243201537627172225031936088305673608113 (0xB6F6E991FABA87A1A7F0CE434DCE9BB1)
Полное имя : F:\Zemlja.2.1971.x264.DVDRip.sasha20072007.mkv
Формат : Matroska
Версия формата : Version 2
Размер файла : 1,63 Гбайт
Продолжительность : 1 ч. 37 м.
Общий поток : 2383 Кбит/сек
Название фильма : EARTH II / Земля 2 / 1971г / rip by sasha20072007
Дата кодирования : UTC 2012-05-04 11:47:40
Программа кодирования : mkvmerge v5.5.0 ('Healer') built on Apr 24 2012 23:47:03
Библиотека кодирования : libebml v1.2.3 + libmatroska v1.3.0
Attachment : Yes / Yes
Видео
Идентификатор : 1
Формат : AVC
Формат/Информация : Advanced Video Codec
Профиль формата : High@L4.1
Параметр CABAC формата : Да
Параметр ReFrames формата : 10 кадров
Идентификатор кодека : V_MPEG4/ISO/AVC
Продолжительность : 1 ч. 37 м.
Битрейт : 1952 Кбит/сек
Ширина : 720 пикселей
Высота : 548 пикселей
Соотношение сторон : 4:3
Режим частоты кадров : Постоянный
Частота кадров : 23,976 кадра/сек
Цветовое пространство : YUV
Субдискретизация насыщенности : 4:2:0
Битовая глубина : 8 бит
Тип развёртки : Прогрессивная
Бит/(Пиксели*Кадры) : 0.206
Размер потока : 1,33 Гбайт (82%)
Библиотека кодирования : x264 core 120 r2164 da19765
Настройки программы : cabac=1 / ref=10 / deblock=1:-2:-2 / analyse=0x3:0x133 / me=umh / subme=11 / psy=1 / psy_rd=1.00:0.18 / mixed_ref=1 / me_range=24 / chroma_me=1 / trellis=2 / 8x8dct=1 / cqm=0 / deadzone=21,11 / fast_pskip=1 / chroma_qp_offset=-3 / threads=12 / sliced_threads=0 / nr=0 / decimate=1 / interlaced=0 / bluray_compat=0 / constrained_intra=0 / bframes=10 / b_pyramid=2 / b_adapt=2 / b_bias=0 / direct=1 / weightb=1 / open_gop=0 / weightp=2 / keyint=220 / keyint_min=22 / scenecut=40 / intra_refresh=0 / rc_lookahead=60 / rc=crf / mbtree=1 / crf=19.0 / qcomp=0.60 / qpmin=0 / qpmax=69 / qpstep=4 / vbv_maxrate=17500 / vbv_bufsize=14000 / crf_max=0.0 / nal_hrd=none / ip_ratio=1.25 / aq=1:0.90
Default : Да
Forced : Нет
Аудио #1
Идентификатор : 2
Формат : AC-3
Формат/Информация : Audio Coding 3
Расширение режима : CM (complete main)
Параметр Endianness формата : Big
Идентификатор кодека : A_AC3
Продолжительность : 1 ч. 37 м.
Вид битрейта : Постоянный
Битрейт : 192 Кбит/сек
Каналы : 2 канала
Расположение каналов : Front: L R
Частота : 48,0 КГц
Битовая глубина : 16 бит
Метод сжатия : С потерями
Размер потока : 134 Мбайт (8%)
Заголовок : Русский (sasha200720) AC3 2.0 192kb/s Александр Середа
Язык : Russian
Default : Да
Forced : Да
Аудио #2
Идентификатор : 3
Формат : AC-3
Формат/Информация : Audio Coding 3
Расширение режима : CM (complete main)
Параметр Endianness формата : Big
Идентификатор кодека : A_AC3
Продолжительность : 1 ч. 37 м.
Вид битрейта : Постоянный
Битрейт : 192 Кбит/сек
Каналы : 2 канала
Расположение каналов : Front: L R
Частота : 48,0 КГц
Битовая глубина : 16 бит
Метод сжатия : С потерями
Размер потока : 134 Мбайт (8%)
Язык : English
Default : Нет
Forced : Нет
Текст #1
Идентификатор : 4
Формат : VobSub
Режим смешивания : zlib
Идентификатор кодека : S_VOBSUB
Идентификатор кодека/Информация : The same subtitle format used on DVDs
Заголовок : Русский (Vargnatt+saszab) VobSub
Язык : Russian
Default : Да
Forced : Нет
Текст #2
Идентификатор : 5
Формат : UTF-8
Идентификатор кодека : S_TEXT/UTF8
Идентификатор кодека/Информация : UTF-8 Plain Text
Заголовок : Русский (Vargnatt+saszab) srt
Язык : Russian
Default : Нет
Forced : Нет
Меню
00:00:00.000 : :Chapter 01
00:10:00.500 : :Chapter 02
00:20:00.000 : :Chapter 03
00:30:00.000 : :Chapter 04
00:40:00.500 : :Chapter 05
00:50:00.000 : :Chapter 06
01:00:00.500 : :Chapter 07
01:10:00.000 : :Chapter 08
01:20:00.000 : :Chapter 09
01:30:00.500 : :Chapter 10

Скриншоты



Скринлист

В другом формате: DVD5 Файл дополнительно залит на ОБЛАКО
[Profile] [PM]
Display posts:    
Reply to topic

Current time is: 22-Sep 09:20

All times are UTC + 3



You cannot post new topics in this forum
You cannot reply to topics in this forum
You cannot edit your posts in this forum
You cannot delete your posts in this forum
You cannot vote in polls in this forum
You cannot attach files in this forum
You cannot download files in this forum