Аннигилятор (ТВ) / The Annihilator / Annihilator (Michael Chapman / Майкл Чэпмен) [1986, США, фантастика, VHSRip] ЛО (den904), СТ (kosmoaelita-karlivanovich)

Reply to topic
 
Author Message

kosmoaelita ®

Gender: Male

Longevity: 6 years 9 months

Posts: 965

Location: Украина

Post 22-Dec-2016 05:03

[Quote]

Аннигилятор (ТВ) / Annihilator
Страна: США, Universal TV
Жанр: фантастика
Год выпуска: 1986
Продолжительность: 01:29:04
Перевод: ЛО den904 по субтитрам от (kosmoaelita-karlivanovich)
Режиссер: Michael Chapman / Майкл Чэпмен
В ролях:
Mark Lindsay Chapman ... Richard Armour
Susan Blakely ... Layla
Lisa Blount ... Cindy
Brion James ... Alien Leader
Earl Boen ... Sid
Geoffrey Lewis ... Prof. Alan Jeffries
Catherine Mary Stewart ... Angela Taylor
Nicole Eggert ... Elyse Jeffries
Paul Brinegar ... Pops
Barry Pearl ... Eddie
Barbara Townsend ... Celia Evans
Channing Chase ... Susan Weiss
Glen Vernon ... Henry Evans
Richard Partlow ... FBI Agent #2
Biff Yeager ... FBI Agent #1
Toni Attell ... Patty
James R. Parkes ... Policeman (as James Parkes)
Rodger LaRue ... Man in Coat
Stanley Bennett Clay ... Cammie
Greg Collins ... Policeman
Lola Fisher ... Nervous Lady
Robert Beaulieu ... Nervous Man
Описание: Пилот сериала. который так и не увидел продолжения.
Молодая невеста известного редактора газеты возвращается с рейса на Гавайи совершенно изменившейся. Героя начинают одновременно преследовать полиция и целая армия роботов-динамоториков...

Релиз

Качество: VHSRip
Формат: MKV
Видео: xvid, 942 кбит/с, 512x384, 25 к/с
Аудио 1: Русский ЛО (den904) (AC3, 2 ch, 192 Кбит/с)
Аудио 2: Английский (AC3, 2 ch, 192 Кбит/с)
Субтитры : Русские ()
Работа над релизом:
Релиз kosmoaelita.
Видеоряд найден в сети.
Перевод на слух с англ. по заказу kosmoaelita - karlivanovich
Русская озвучка по заказу kosmoaelita - den904
Спонсор русской озвучки - Андрей Берг



Пример русских субтитров

Дополнительно

Also Known As (AKA)
Belgium (video title) (English title) Executor
Brazil O Aniquilador
Finland Executor
Japan (English title) Bionoid/Annihilator
Mexico (video title) El aniquilador
Netherlands (video title) Executor
West Germany (video title) Die Androiden
West Germany Die Androiden - Sie sind unter uns
West Germany (alternative title) Die Roboter kommen
Формат изображения: 1.33 : 1
Формат копии: 35 mm
Формат съёмок: 35 mm
Изображение: цветное
Язык: английский

Рецензия

This was a second series attempt from musician Roderick Taylor a year after Otherworld for CBS. Strangely, the very title, "Annihilator" is never explained. The unsold pilot tells the story of a newspaper publisher whose girlfriend has been apparently replaced by an android during the return flight from a vacation. A trip he missed due to business. After discovering the switch, he begins a quiet investigation of her fellow travelers, leading only to several attempts on his life and finally being framed by some unknown party for murder, sending him on the run with only a list of the passengers aboard the unfortunate flight as a starting point for his search for the masterminds behind the androids and their ultimate goal. The film maintains the Taylor trademark of an altered reality with the use of surrealistic imagery and music. Many story elements that would define the X-Files years later are on display here. It should also be noted that leading man Mark Lindsay Chapman, then going under the name Mark Lindsay, was given this role as compensation after being cast as John Lennon in a TV biopic, only to be removed when his real name was discovered to be the same as Lennon's killer.

MediaInfo

Общее
Уникальный идентификатор : 199125326507054286338348133348558594468 (0x95CE249521EECD9F9D7C7210461561A4)
Полное имя : N:\The Annihilator 1986.XviD.VHSrip.Rus.kosmoaelita.mkv
Формат : Matroska
Версия формата : Version 4 / Version 2
Размер файла : 860 Мбайт
Продолжительность : 1 ч. 29 м.
Общий поток : 1349 Кбит/сек
Название фильма : The Annihilator - Аннигилятор / 1986 / Релиз kosmoaelita.com
Дата кодирования : UTC 2017-04-13 20:28:26
Программа кодирования : mkvmerge v6.6.0 ('The Edge Of The In Between') built on Dec 1 2013 17:55:00
Библиотека кодирования : libebml v1.3.0 + libmatroska v1.4.1
Attachments : poster.jpg
Видео
Идентификатор : 1
Формат : MPEG-4 Visual
Профиль формата : Advanced Simple@L5
Параметр BVOP формата : 2
Параметр QPel формата : Нет
Параметр GMC формата : Без точки перехода
Параметр матрицы формата : Выборочная
Идентификатор кодека : V_MS/VFW/FOURCC / XVID
Идентификатор кодека/Подсказка : XviD
Продолжительность : 1 ч. 29 м.
Битрейт : 939 Кбит/сек
Ширина : 512 пикселей
Высота : 384 пикселя
Соотношение сторон : 4:3
Режим частоты кадров : Постоянный
Частота кадров : 25,000 кадров/сек
Цветовое пространство : YUV
Субдискретизация насыщенности : 4:2:0
Битовая глубина : 8 бит
Тип развёртки : Прогрессивная
Метод сжатия : С потерями
Бит/(Пиксели*Кадры) : 0.191
Размер потока : 598 Мбайт (70%)
Заголовок : kosmoaelita
Библиотека кодирования : XviD 1.2.1 (UTC 2008-12-04)
Default : Да
Forced : Нет
Аудио #1
Идентификатор : 2
Формат : AC-3
Формат/Информация : Audio Coding 3
Расширение режима : CM (complete main)
Параметр Endianness формата : Big
Идентификатор кодека : A_AC3
Продолжительность : 1 ч. 29 м.
Вид битрейта : Постоянный
Битрейт : 192 Кбит/сек
Каналы : 2 канала
Расположение каналов : Front: L R
Частота : 48,0 КГц
Частота кадров : 31,250 кадров/сек (1536 spf)
Метод сжатия : С потерями
Размер потока : 122 Мбайт (14%)
Заголовок : Русский ЛО (den904 для kosmoaelita.com) - поддержка А.Берг
Язык : Russian
Default : Да
Forced : Нет
Аудио #2
Идентификатор : 3
Формат : AC-3
Формат/Информация : Audio Coding 3
Расширение режима : CM (complete main)
Параметр Endianness формата : Big
Идентификатор кодека : A_AC3
Продолжительность : 1 ч. 29 м.
Вид битрейта : Постоянный
Битрейт : 192 Кбит/сек
Каналы : 2 канала
Расположение каналов : Front: L R
Частота : 48,0 КГц
Частота кадров : 31,250 кадров/сек (1536 spf)
Метод сжатия : С потерями
Размер потока : 122 Мбайт (14%)
Язык : English
Default : Нет
Forced : Нет
Текст #1
Идентификатор : 4
Формат : VobSub
Режим смешивания : zlib
Идентификатор кодека : S_VOBSUB
Идентификатор кодека/Информация : Picture based subtitle format used on DVDs
Заголовок : Русский (kosmoaelita-karlivanovich) VobSub - перевод на слух с англ.
Язык : Russian
Default : Да
Forced : Нет
Текст #2
Идентификатор : 5
Формат : VobSub
Режим смешивания : zlib
Идентификатор кодека : S_VOBSUB
Идентификатор кодека/Информация : Picture based subtitle format used on DVDs
Заголовок : Русский (kosmoaelita-karlivanovich) VobSub - перевод на слух с англ.
Язык : Russian
Default : Нет
Forced : Нет
Текст #3
Идентификатор : 6
Формат : UTF-8
Идентификатор кодека : S_TEXT/UTF8
Идентификатор кодека/Информация : UTF-8 Plain Text
Заголовок : Русский (kosmoaelita-karlivanovich) srt - перевод на слух с англ.
Язык : Russian
Default : Нет
Forced : Нет

Пример субтитров

1
00:00:03,020 --> 00:00:08,005
"АННИГИЛЯТОР"
[The Annihilator, 1986]
2
00:00:11,299 --> 00:00:14,011
Перевод karlivanovich
для сайта kosmoaelita.com
3
00:05:25,745 --> 00:05:28,834
Какой ужас, что с вами?
4
00:05:29,107 --> 00:05:32,279
- Не надо...
- Садитесь в машину.
5
00:05:39,043 --> 00:05:41,043
Поехали!
6
00:05:46,454 --> 00:05:49,240
МАРК ЛИНДСЕЙ ЧАПМАН
7
00:05:50,637 --> 00:05:52,970
приглашённая звезда
СЬЮЗЕН БЛЕЙКЛИ
8
00:05:54,631 --> 00:05:56,631
ЛИЗА БЛАУНТ
и другие
-------------------
638
01:25:38,254 --> 01:25:40,673
Что они делают среди нас?
639
01:25:40,812 --> 01:25:44,438
Я попытаюсь найти твет,
пока ответ не найдёт меня.
640
01:25:44,729 --> 01:25:46,729
В случае же моей неудачи...
641
01:25:47,805 --> 01:25:50,632
...мир будет в их власти...

Скриншоты










[/URL]
[/URL]

Скринлист



Last edited by kosmoaelita on 2017-04-13 23:34; edited 12 times in total
[Profile] [PM]

kosmoaelita ®

Gender: Male

Longevity: 6 years 9 months

Posts: 965

Location: Украина

Post 22-Dec-2016 05:04 (after 1 minute)

[Quote]

Пилот сериала. которій так и не увидел продолжения.
А зря. Шикарный фильм - держит в напряжении от начала и до конца и непонятно. что будет дальше.
Смазана и недосказана концовка. так как планировалось продолжение.
[Profile] [PM]

kosmoaelita ®

Gender: Male

Longevity: 6 years 9 months

Posts: 965

Location: Украина

Post 13-Apr-2017 23:19 (after 3 months 22 days)

[Quote]

Добавлена русская озвучка от den904
[Profile] [PM]
Display posts:    
Reply to topic

Current time is: 25-Jun 15:23

All times are UTC + 3



You cannot post new topics in this forum
You cannot reply to topics in this forum
You cannot edit your posts in this forum
You cannot delete your posts in this forum
You cannot vote in polls in this forum
You cannot attach files in this forum
You cannot download files in this forum