Саурора / Saurora (Павел Сиска / Pavel Siska) [2016, Чехия, короткометражка, фантастика, WebRip] (СТ : LaMan) (СТ : чешские) (Sub Rus) (Sub Cze)

Ответить на тему
Статистика раздачи
Размер:  48 MB   |    Зарегистрирован:  11 месяцев 6 дней   |    Скачан:  1 раз

Полного источника не было: 10 месяцев 20 дней

 
   
 
 
 
Автор Сообщение

Faer ®

Пол: Мужской

Стаж: 2 года 10 месяцев

Сообщений: 325

Откуда: Сербия

Создавать темы 13-Дек-2016 20:55

[Цитировать]

Саурора / Saurora
Страна: Чехия
Жанр: короткометражка, фантастика
Год выпуска: 2016
Продолжительность: 00:06:42
Перевод: Субтитры LaMan
Перевод 2: Субтитры чешские
Cубтитры: русские, чешские
Режиссер: Павел Сиска / Pavel Siska
В ролях: Травис Ворк, Роберт Запф
Описание: Далекое будущее, земляне научились находить и осваивать пригодные для жизни экзопланеты. Саурора одна из таких планет, на ней уже давно ведутся работы по превращению её в полностью подходящий для человека мир. Здесь уже построено множество сооружений и зданий, необходимых для нормального существования людей, ведутся работы по освоению водной её части.
Подводники, используя специальные костюмы оснащенные экзоскелетами, монтируют подводные части конструкций. С одним из работников была потеряна связь, а позже он был найден лежащем на каком-то выступе. Сверху пришла команда срочно начать подъём пострадавшего. Второй водолаз делает все возможное, с помощью троса мужчина хочет поднять своего товарища, но что-то держит пострадавшего подводника.
А потом началось невероятное, ведь как оказалось, они здесь не одни. Нечто огромное и живое есть под ними, и это нечто умеет ловить на живца. Используя тело одного, оно приманило другого, чтобы схватить его и обратить в себе подобного. Какие ещё страшные тайны скрывает эта загадочная планета Саурора, может не стоило, так не обдуманно, тревожить её покой.

Качество видео: WebRip
Формат видео: MKV
Видео: MPEG4, 1280x544, 2.35:1, 24fps, 877кбит/с
Аудио: AAC, 44.1kHz, 128кбит/с, стерео английский
Формат субтитров: softsub (SRT)

MediaInfo

SAURORA.mkv
General
Unique ID : 191482173357669557972881926155050139956 (0x900E2009BCE624168CF03FCDCCB3C134)
Complete name : C:\Users\Faer\Desktop\SAURORA.mkv
Format : Matroska
Format version : Version 4 / Version 2
File size : 48.3 MiB
Duration : 6 min 42 s
Overall bit rate : 1 005 kb/s
Encoded date : UTC 2016-12-13 17:12:30
Writing application : mkvmerge v9.6.0 ('Slave To Your Mind') 64bit
Writing library : libebml v1.3.4 + libmatroska v1.4.5
Video #1
ID : 1
Format : AVC
Format/Info : Advanced Video Codec
Format profile : Main@L3.1
Format settings, CABAC : Yes
Format settings, ReFrames : 3 frames
Codec ID : V_MPEG4/ISO/AVC
Duration : 6 min 42 s
Bit rate : 877 kb/s
Width : 1 280 pixels
Height : 544 pixels
Display aspect ratio : 2.35:1
Frame rate mode : Constant
Frame rate : 24.000 FPS
Color space : YUV
Chroma subsampling : 4:2:0
Bit depth : 8 bits
Scan type : Progressive
Bits/(Pixel*Frame) : 0.053
Stream size : 42.1 MiB (87%)
Default : Yes
Forced : No
Color range : Limited
Color primaries : BT.709
Transfer characteristics : BT.709
Matrix coefficients : BT.709
Audio #2
ID : 2
Format : AAC
Format/Info : Advanced Audio Codec
Format profile : LC
Codec ID : A_AAC
Duration : 6 min 42 s
Bit rate : 126 kb/s
Channel(s) : 2 channels
Channel positions : Front: L R
Sampling rate : 44.1 kHz
Frame rate : 43.066 FPS (1024 spf)
Compression mode : Lossy
Stream size : 6.03 MiB (12%)
Language : English
Default : Yes
Forced : No
Text #3
ID : 3
Format : UTF-8
Codec ID : S_TEXT/UTF8
Codec ID/Info : UTF-8 Plain Text
Duration : 4 min 51 s
Bit rate : 37 b/s
Count of elements : 34
Stream size : 1.35 KiB (0%)
Language : Russian
Default : Yes
Forced : No
Text #4
ID : 4
Format : UTF-8
Codec ID : S_TEXT/UTF8
Codec ID/Info : UTF-8 Plain Text
Duration : 3 min 7 s
Bit rate : 37 b/s
Count of elements : 32
Stream size : 873 Bytes (0%)
Language : Czech
Default : No
Forced : No

Скриншоты




cd Рип дополнительно залит на mail.ru cd2
SAURORA.mkv.torrent
Торрент: Зарегистрирован [ 2016-12-13 20:55 ]

Скачать .torrent

Скачать

15 KB

Статус: проверено
Скачан: 1 раз
Размер: 48 MB
 


Последний раз редактировалось: Faer (2016-12-13 21:02), всего редактировалось 1 раз
[Профиль] [ЛС]

Faer ®

Пол: Мужской

Стаж: 2 года 10 месяцев

Сообщений: 325

Откуда: Сербия

Создавать темы 13-Дек-2016 20:59 (спустя 3 минуты)

[Цитировать]

Скрины позжа переделаю. Кмплейер подгадил немношк.
[Профиль] [ЛС]

croMAG

Пол: Мужской

Стаж: 2 года 2 месяца

Сообщений: 1873

Откуда: Прибалтика

Создавать темы 13-Дек-2016 21:01 (спустя 1 минута)

[Цитировать]

Faer, Делай в VLC Он никогда не гадит
[Профиль] [ЛС]
Показать сообщения:    
Ответить на тему

Текущее время: 20-Ноя 11:07

Часовой пояс: UTC + 3:30



Вы не можете начинать темы
Вы не можете отвечать на сообщения
Вы не можете редактировать свои сообщения
Вы не можете удалять свои сообщения
Вы не можете голосовать в опросах
Вы не можете прикреплять файлы к сообщениям
Вы можете скачивать файлы