Война мутантов / Mutant War / Mutant Men Want Pretty Women (Brett Piper / Бретт Пайпер) [1988, США, постапокалипсис, фантастика, BDRip-1080p] АО (В.Котов)

Reply to topic
DL-List and Torrent activity
Size:  6.89 GB   |    Registered:  1 year 7 months   |    Completed:  1 time

Seeder not seen: 1 year 7 months

 
   
 
 
 
Author Message

kosmoaelita ®

Gender: Male

Longevity: 8 years 3 months

Posts: 1710

Post 03-Dec-2016 00:29

[Quote]

Война мутантов / Mutant War / Mutant Men Want Pretty Women
Страна: США, Cinevest Entertainment Group
Жанр: постапокалипсис, sci-fi
Год выпуска: 1988
Продолжительность: 01:21:48
Перевод: Авторский (одноголосый) В.Котов
Режиссер: Brett Piper / Бретт Пайпер
В ролях:
Cameron Mitchell ...Reinhart Rex
Matt Mitler ...Harry Trent
Deborah Quayle ...Beth
Kristine Waterman ...Spider
Описание: Продолжение фильма Бретта Пайпера "Битва за потерянную планету -Battle For The Lost Planet (1986) ".
На этот раз главный герой сражается против злодея, создающего мутантов с целью захвата мира. Но, увы, все мутанты мужского пола, так что для разможения им требуются обычные девушки, которых они похищают и утаскивают к себе на базу. Спасать похищенных и отправляется наш герой.

Качество: BDRip-1080p
Формат: MKV
Видео: x264, 11500 кбит/с, 1920x1036, 23.976 к/с
Аудио 1: Русский АО (Котов)(AC3, 2 ch, 192 Кбит/с)
Аудио 2: Английский (AC3, 1 ch, 384 Кбит/с)
Субтитры : Английские
Работа над релизом:
Видеоряд найден на rarbg2018.org
Синхронизация русской дорожки - kosmoaelita
Релиз videodemons
За появление релиза спасибо: punk and destroy, Faulenzer, AlexNever, ChesteR, E-Ball, Ivanov, Sin, M`n`V, Probspot, croMAG, Zero



Пример русского перевода

Дополнительно

бюджет $60 000
Also Known As (AKA)
Poland (literal title) Mutanty Pragna Pieknych Kobiet
USA (alternative title) Mutant Men Want Pretty Women

Знаете ли вы, что...

Отзывы

MediaInfo

Общее
Уникальный идентификатор : 177478203363603320412912833181667348226 (0x85850F02993C36148A3672FCDC68CF02)
Полное имя : N:\BD-DISC\Mutant.War.1988.1080p.BluRay.x264.DTS-FGT\Mutant War 1988.x264.BDRip.1080p.Rus.kosmoaelita.mkv
Формат : Matroska
Версия формата : Version 4
Размер файла : 6,89 Гбайт
Продолжительность : 1 ч. 21 м.
Общий поток : 12,1 Мбит/сек
Название фильма : Mutant War / Война мутантов / 1988 / kosmoaelita
Дата кодирования : UTC 2019-04-20 23:58:25
Программа кодирования : mkvmerge v6.6.0 ('The Edge Of The In Between') built on Dec 1 2013 17:55:00
Библиотека кодирования : libebml v1.3.0 + libmatroska v1.4.1
Attachments : POSTER mutant_war_1987.jpg
Видео
Идентификатор : 1
Формат : AVC
Формат/Информация : Advanced Video Codec
Профиль формата : High@L4.1
Настройки формата : CABAC / 4 Ref Frames
Параметр CABAC формата : Да
Параметр RefFrames формата : 4 кадра
Идентификатор кодека : V_MPEG4/ISO/AVC
Продолжительность : 1 ч. 21 м.
Битрейт : 11,5 Мбит/сек
Ширина : 1920 пикселей
Высота : 1036 пикселей
Соотношение сторон : 1,85:1
Режим частоты кадров : Постоянный
Частота кадров : 23,976 (24000/1001) кадра/сек
Цветовое пространство : YUV
Субдискретизация насыщенности : 4:2:0
Битовая глубина : 8 бит
Тип развёртки : Прогрессивная
Бит/(Пиксели*Кадры) : 0.241
Размер потока : 6,43 Гбайт (93%)
Заголовок : http://kosmoaelita.com/viewtopic.php?t=2250
Библиотека кодирования : x264 core 148 r2795M aaa9aa8
Настройки программы : cabac=1 / ref=4 / deblock=1:-2:-2 / analyse=0x3:0x113 / me=umh / subme=9 / psy=1 / psy_rd=1.00:0.15 / mixed_ref=1 / me_range=16 / chroma_me=1 / trellis=2 / 8x8dct=1 / cqm=0 / deadzone=21,11 / fast_pskip=1 / chroma_qp_offset=-3 / threads=24 / lookahead_threads=3 / sliced_threads=0 / nr=0 / decimate=1 / interlaced=0 / bluray_compat=0 / constrained_intra=0 / bframes=3 / b_pyramid=2 / b_adapt=1 / b_bias=0 / direct=3 / weightb=1 / open_gop=0 / weightp=2 / keyint=250 / keyint_min=25 / scenecut=40 / intra_refresh=0 / rc_lookahead=50 / rc=2pass / mbtree=1 / bitrate=11500 / ratetol=1.0 / qcomp=0.60 / qpmin=0 / qpmax=69 / qpstep=4 / cplxblur=20.0 / qblur=0.5 / vbv_maxrate=31250 / vbv_bufsize=31250 / nal_hrd=none / filler=0 / ip_ratio=1.40 / aq=1:1.00
Язык : English
Default : Да
Forced : Нет
Аудио #1
Идентификатор : 2
Формат : AC-3
Формат/Информация : Audio Coding 3
Коммерческое название : Dolby Digital
Идентификатор кодека : A_AC3
Продолжительность : 1 ч. 21 м.
Вид битрейта : Постоянный
Битрейт : 192 Кбит/сек
Каналы : 2 канала
Channel layout : L R
Частота : 48,0 КГц
Частота кадров : 31,250 кадров/сек (1536 SPF)
Битовая глубина : 16 бит
Метод сжатия : С потерями
Размер потока : 112 Мбайт (2%)
Заголовок : Русский АО (В.Котов)
Язык : Russian
ServiceKind/String : Complete Main
Default : Да
Forced : Нет
Аудио #2
Идентификатор : 3
Формат : AC-3
Формат/Информация : Audio Coding 3
Коммерческое название : Dolby Digital
Идентификатор кодека : A_AC3
Продолжительность : 1 ч. 21 м.
Вид битрейта : Постоянный
Битрейт : 384 Кбит/сек
Каналы : 1 канал
Channel layout : C
Частота : 48,0 КГц
Частота кадров : 31,250 кадров/сек (1536 SPF)
Битовая глубина : 16 бит
Метод сжатия : С потерями
Размер потока : 225 Мбайт (3%)
Язык : English
ServiceKind/String : Complete Main
Default : Нет
Forced : Нет
Текст #1
Идентификатор : 4
Формат : UTF-8
Идентификатор кодека : S_TEXT/UTF8
Идентификатор кодека/Информация : UTF-8 Plain Text
Язык : English
Default : Да
Forced : Нет
Текст #2
Идентификатор : 5
Формат : UTF-8
Идентификатор кодека : S_TEXT/UTF8
Идентификатор кодека/Информация : UTF-8 Plain Text
Заголовок : SDH
Язык : English
Default : Нет
Forced : Нет
Меню
00:00:00.000 : en:Chapter 1
00:21:31.290 : en:Chapter 2
00:41:50.508 : en:Chapter 3
01:01:32.689 : en:Chapter 4
01:17:00.116 : en:Chapter 5

Скриншоты














Скринлист

cd Рип дополнительно залит на ОБЛАКО cd2
Mutant War 1988.x264.BDRip.1080p.Rus.kosmoaelita.mkv.torrent
Torrent: Registered [ 2019-04-21 08:27 ]

Download .torrent

Download

18 KB

Status: checked
Completed: 1 times
Size: 6.89 GB
 


Last edited by kosmoaelita on 2016-12-03 03:22; edited 6 times in total
[Profile] [PM]

CROM@G

Gender: Male

Longevity: 5 years 2 months

Posts: 3431

Location: Прибалтика

Post 03-Dec-2016 01:35 (after 1 hour 5 minutes)

[Quote]

Ойо Даже я в этом релизе оказывается поучаствовал
[Profile] [PM]

AlexNT60

Gender: Male

Longevity: 7 years 9 months

Posts: 137

Location: СПб

Post 19-Apr-2019 09:51 (after 2 years 4 months)

[Quote]

На rarbg появились БД этот и Battle For The Lost Planet (Galaxy)...
[Profile] [PM]

Guest

Gender: Unknown

Longevity: 50 years

Post 21-Apr-2019 08:31 (after 1 day 22 hours)

[Quote]

Замена на BDRip (блюр без реставрации)
WEBRip vs. BDRip

[Profile] [PM]
Display posts:    
Reply to topic

Current time is: 02-Dec 21:33

All times are UTC + 3



You cannot post new topics in this forum
You cannot reply to topics in this forum
You cannot edit your posts in this forum
You cannot delete your posts in this forum
You cannot vote in polls in this forum
You cannot attach files in this forum
You can download files in this forum